Домашня робота (Мистецтво виходити сухим з води) / The Art of Getting By (2011) 1080p Ukr/Eng | Sub Ukr/Eng

Нові коментарі

Нова тема   Відповісти
Останній раз роздавалося MasterYura (2020-09-18)
Автор Повідомлення
MasterYura 
Відео Гуртом - фільмокрай
Відео Гуртом - фільмокрай


З нами з: 21.11.09
Востаннє: 26.09.20
Повідомлень: 1106

2019-10-04 09:40  
Домашня робота (Мистецтво виходити сухим з води)
The Art of Getting By (2011)
1080p Ukr/Eng | Sub Ukr/Eng

Домашня робота (Мистецтво виходити сухим з води) / The Art of Getting By (2011) 1080p Ukr/Eng | Sub Ukr/Eng


Жанр: мелодрама, романтичний
Країна: США



Кінокомпанія: Goldcrest Pictures, Mint Pictures, Island Bound Productions
Режисер: Гевін Вьєсен
Актори: Фредді Хаймор, Емма Робертс, Саша Спілберг, Марк Карль Франклін, Енн Дауд, Майя Рі Санчес та інші

Сюжет:
Джордж - самотній і замкнутий підліток. У нього є талант до малювання, однак цей дар пропадає даремно. Але одного разу Джордж знайомиться зі складною дівчиною Саллі.


Тривалість: 01:23:17
Якість:
Відео:
кодек:
розмір кадру: 1920x798
бітрейт: 12113 кб/с

Аудіо # 1:
мова: українська
переклад: багатоголосий закадровий
кодек: 2.0
бітрейт: 192 кб/с

Аудіо # 2:
мова: англійська
переклад: оригінал
кодек: 5.1
бітрейт: 1509 кб/с

Аудіо # 3:
мова: англійська
переклад: коментарі
кодек: 2.0
бітрейт: 192 кб/с

Субтитри # 1:
мова: українська
тип: програмні (м'які)
формат: *.srt

Субтитри # 2:
мова: англійська
тип: програмні (м'які)
формат: *.srt

Субтитри # 3: SDH
мова: англійська
тип: програмні (м'які)
формат: *.srt
Info

General
Unique ID : 276745824560097824723304526825153417179 (0xD0334E9ADB9A7306B9109A6C8944CFDB)
Complete name : ...The Art of Getting By (2011) 1080p [Ukr, sub Ukr, Eng][Hurtom] by MasterYura.
Format :
Format version : Version 4
File size : 8.17 GiB
Duration : 1 h 23 min
Overall bit rate : 14.0 Mb/s
Movie name : The Art of Getting By (2011)
Encoded date : UTC 2019-10-04 06:17:27
Writing application : v37.0.0 ('Leave It') 64-bit
Writing library : libebml v1.3.9 + v1.5.2
Cover : Yes
Attachments : cover.jpg

Video
ID : 1
Format : AVC
Format/Info : Advanced Video Codec
Format profile : [email protected]
Format settings : CABAC / 5 Ref Frames
Format settings, CABAC : Yes
Format settings, ReFrames : 5 frames
Codec ID : V_MPEG4/ISO/AVC
Duration : 1 h 23 min
Bit rate : 12.1 Mb/s
Width : 1 920 pixels
Height : 798 pixels
Display aspect ratio : 2.40:1
Frame rate mode : Constant
Frame rate : 23.976 FPS
Color space : YUV
Chroma subsampling : 4:2:0
Bit depth : 8 bits
Scan type : Progressive
Bits/(Pixel*Frame) : 0.330
Stream size : 7.05 GiB (86%)
Writing library : core 118 r2085+614 d1cc25d
Encoding settings : cabac=1 / ref=5 / deblock=1:-3:-3 / analyse=0x3:0x113 / me=umh / subme=10 / psy=1 / fade_compensate=0.00 / psy_rd=1.05:0.10 / mixed_ref=1 / me_range=48 / chroma_me=1 / trellis=2 / 8x8dct=1 / cqm=2 / deadzone=21,11 / fast_pskip=0 / chroma_qp_offset=-2 / threads=12 / sliced_threads=0 / nr=0 / decimate=1 / interlaced=0 / bluray_compat=0 / constrained_intra=0 / fgo=0 / bframes=6 / b_pyramid=2 / b_adapt=2 / b_bias=0 / direct=3 / weightb=1 / open_gop=0 / weightp=2 / keyint=250 / keyint_min=23 / scenecut=40 / intra_refresh=0 / rc_lookahead=60 / rc=2pass / mbtree=1 / bitrate=12113 / ratetol=2.0 / qcomp=0.70 / qpmin=1 / qpmax=63 / qpstep=4 / cplxblur=20.0 / qblur=0.5 / vbv_maxrate=40000 / vbv_bufsize=30000 / nal_hrd=none / ip_ratio=1.40 / aq=2:1.00
Language : English
Default : Yes
Forced : Yes

Audio #1
ID : 2
Format : AC-3
Format/Info : Audio Coding 3
Commercial name : Dolby Digital
Codec ID : A_AC3
Duration : 1 h 23 min
Bit rate mode : Constant
Bit rate : 192 kb/s
Channel(s) : 2 channels
Channel layout : L R
Sampling rate : 48.0 kHz
Frame rate : 31.250 FPS (1536 SPF)
Bit depth : 16 bits
Compression mode : Lossy
Stream size : 114 MiB (1%)
Title : Багатоголосий (1+1)
Language : Ukrainian
Service kind : Complete Main
Default : Yes
Forced : No

Audio #2
ID : 3
Format :
Format/Info : Digital Theater Systems
Codec ID : A_DTS
Duration : 1 h 23 min
Bit rate mode : Constant
Bit rate : 1 509 kb/s
Channel(s) : 6 channels
Channel layout : C L R Ls Rs LFE
Sampling rate : 48.0 kHz
Frame rate : 93.750 FPS (512 SPF)
Bit depth : 24 bits
Compression mode : Lossy
Stream size : 899 MiB (11%)
Language : English
Default : No
Forced : No

Audio #3
ID : 4
Format : AC-3
Format/Info : Audio Coding 3
Commercial name : Dolby Digital
Codec ID : A_AC3
Duration : 1 h 23 min
Bit rate mode : Constant
Bit rate : 224 kb/s
Channel(s) : 2 channels
Channel layout : L R
Sampling rate : 48.0 kHz
Frame rate : 31.250 FPS (1536 SPF)
Bit depth : 16 bits
Compression mode : Lossy
Stream size : 133 MiB (2%)
Title : Commentary
Language : English
Service kind : Complete Main
Default : No
Forced : No

Text #1
ID : 5
Format : UTF-8
Codec ID : S_TEXT/UTF8
Codec ID/Info : UTF-8 Plain Text
Duration : 1 h 21 min
Bit rate : 84 b/s
Count of elements : 987
Stream size : 50.4 KiB (0%)
Title : Від Mosgito
Language : Ukrainian
Default : Yes
Forced : No

Text #2
ID : 6
Format : UTF-8
Codec ID : S_TEXT/UTF8
Codec ID/Info : UTF-8 Plain Text
Duration : 1 h 21 min
Bit rate : 51 b/s
Count of elements : 1037
Stream size : 30.7 KiB (0%)
Title : English
Language : English
Default : No
Forced : No

Text #3
ID : 7
Format : UTF-8
Codec ID : S_TEXT/UTF8
Codec ID/Info : UTF-8 Plain Text
Duration : 1 h 21 min
Bit rate : 53 b/s
Count of elements : 1080
Stream size : 31.7 KiB (0%)
Title : English (SDH)
Language : English
Default : No
Forced : No

Menu
00:00:00.000 : en:00:00:00.000
00:03:00.972 : en:00:03:00.972
00:08:03.566 : en:00:08:03.566
00:13:11.582 : en:00:13:11.582
00:18:14.719 : en:00:18:14.719
00:20:15.589 : en:00:20:15.589
00:24:01.148 : en:00:24:01.148
00:29:29.476 : en:00:29:29.476
00:34:48.837 : en:00:34:48.837
00:38:50.578 : en:00:38:50.578
00:42:39.056 : en:00:42:39.056
00:47:23.716 : en:00:47:23.716
00:50:34.782 : en:00:50:34.782
00:52:23.974 : en:00:52:23.974
00:56:58.081 : en:00:56:58.081
01:01:58.214 : en:01:01:58.214
01:08:12.213 : en:01:08:12.213
01:12:52.451 : en:01:12:52.451
01:17:27.977 : en:01:17:27.977
01:19:30.766 : en:01:19:30.766
Скріншоти






Подяки:
- за роздачі з Гуртом з котрих взяті звук та оформлення: Anonymous
- Постер, запис і зведення звуку: Bohdan237
- Українські субтитри: Mosgito

Джерело: &
Особиста оцінка: 0 - не дивився


 Трекер:    Зареєстрований   

Завантажити / скачати фільм українською



відео для новачків



 Зареєстрований:   2019-10-04 10:08
 Розмір:   8.17 GB 
 Оцінка фільму:   10/10 (Голосів: 3)
   
bot 
робот


З нами з: 30.09.07
Востаннє: 26.05.05
Повідомлень: 25609

2019-10-04 09:54  
Тему перенесено з Фільми до форуму Фільми в HD


MasterYura

igor911 
Модератор відео


З нами з: 18.01.08
Востаннє: 26.09.20
Повідомлень: 15006

2019-10-04 10:51  
MasterYura, скріншоти в розділі HD мають бути зроблені у png форматі, треба переробити.
MasterYura 
Відео Гуртом - фільмокрай
Відео Гуртом - фільмокрай


З нами з: 21.11.09
Востаннє: 26.09.20
Повідомлень: 1106

2019-10-04 10:58  
igor911 написано:
MasterYura, скріншоти в розділі HD мають бути зроблені у png форматі, треба переробити.

Замінив)

jaral 
Забанено
Забанено


З нами з: 18.10.07
Востаннє: 21.01.20
Повідомлень: 977

2019-10-04 13:44  
Тут також русифікований відеоряд?
MasterYura 
Відео Гуртом - фільмокрай
Відео Гуртом - фільмокрай


З нами з: 21.11.09
Востаннє: 26.09.20
Повідомлень: 1106

2019-10-04 14:22  
jaral написано:
Тут також русифікований відеоряд?

переглянув фільм, відеоряд анг

Ваш часовий пояс: GMT + 2 Години

Нова тема   Відповісти