Два собаки на Різдво / Zwei Weihnachtshunde (2005) 720p Ukr/Ger

Нові коментарі

Нова тема   Відповісти
Автор Повідомлення
Anonymous 







2019-10-04 01:32  
Два собаки на Різдво / Zwei Weihnachtshunde (2005) 720p Ukr/Ger

Два собаки на Різдво / Zwei Weihnachtshunde (2005) 720p Ukr/Ger

Зворотній бік коробки DVD


Жанр: романтичний, сімейний, комедія
Країна: Австрія



Кінокомпанія: Cult Film, Zweites Deutsches Fernsehen (ZDF), Österreichischer Rundfunk (ORF)
Актори: Надєжда Бренніке, Флоріан Фіц, Ґюнтер Джиліан, Урсула Штраус, Фріц фон Фрідль, Адель Нойгаузер, Маркус Бойсен, Гено Лехнер, Тріксі і Курт

Сюжет:
На весіллі у найкращих друзів Макс і Катрін самі замислились про одруження – чи здатні вони на такий серйозний крок? Та, як виявилось, Макс не лише не відповідає стандартам батьків Катрін, він ще й відкладає гроші на власний ресторан – цим сюрпризом він вирішив приголомшити дівчину напередодні Різдва. До того ж, не знайшовши нічого кращого, ніж просто перепросити, Макс приносить додому, на пару до свого песика Курта, миле цуценя Тріксі, якому він приділяє уваги трохи не більше, ніж своїй нареченій. А далі ще краще… Виявляється, у Тріксі є ще миліша господиня, і Макс до неї не байдужий. (опис з сайту 1+1)


Тривалість: 01:29:28
Якість: 720p
Відео:
кодек:
розмір кадру: 1280 х 710
бітрейт: 4246 кб/с

Аудіо # 1:
мова: українська
переклад: багатоголосий закадровий
кодек: 2.0
бітрейт: 192 кб/с

Аудіо # 2:
мова: німецька
переклад: оригінал
кодек: 2.0
бітрейт: 384 кб/с

Джерело озвучення:
Компанія КіТ
Info
General
Unique ID : 112728271074267317514863435302814034140 (0x54CEACDF6B1830D82393B06BCCAB28DC)
Complete name : Zwei Weihnachtshunde (2005) 720p [Ukr_Ger] [Hurtom].
Format :
Format version : Version 4
File size : 3.01 GiB
Duration : 1 h 29 min
Overall bit rate : 4 824 kb/s
Movie name : Два собаки на Різдво (2005)
Encoded date : UTC 2019-10-03 21:53:04 / UTC 2018-12-30T17:48:01Z
Writing application : v37.0.0 ('Leave It') 32-bit
Writing library : libebml v1.3.9 + v1.5.2 / Lavf57.7.2
Cover : Yes
Attachments : cover.jpg

Video
ID : 1
Format : AVC
Format/Info : Advanced Video Codec
Format profile : [email protected]
Format settings : CABAC / 5 Ref Frames
Format settings, CABAC : Yes
Format settings, ReFrames : 5 frames
Codec ID : V_MPEG4/ISO/AVC
Duration : 1 h 29 min
Bit rate : 4 246 kb/s
Width : 1 280 pixels
Height : 710 pixels
Display aspect ratio : 16:9
Frame rate mode : Constant
Frame rate : 25.000 FPS
Color space : YUV
Chroma subsampling : 4:2:0
Bit depth : 8 bits
Scan type : Progressive
Bits/(Pixel*Frame) : 0.187
Stream size : 2.65 GiB (88%)
Writing library : core 155 r2901 7d0ff22
Encoding settings : cabac=1 / ref=5 / deblock=1:-3:-3 / analyse=0x3:0x113 / me=umh / subme=7 / psy=1 / psy_rd=1.00:0.00 / mixed_ref=1 / me_range=16 / chroma_me=1 / trellis=1 / 8x8dct=1 / cqm=0 / deadzone=21,11 / fast_pskip=1 / chroma_qp_offset=-2 / threads=6 / lookahead_threads=1 / sliced_threads=0 / nr=0 / decimate=1 / interlaced=0 / bluray_compat=0 / constrained_intra=0 / bframes=3 / b_pyramid=2 / b_adapt=2 / b_bias=0 / direct=3 / weightb=1 / open_gop=0 / weightp=2 / keyint=250 / keyint_min=25 / scenecut=40 / intra_refresh=0 / rc_lookahead=50 / rc=crf / mbtree=1 / crf=19.0 / qcomp=0.60 / qpmin=0 / qpmax=69 / qpstep=4 / vbv_maxrate=62500 / vbv_bufsize=78125 / crf_max=0.0 / nal_hrd=none / filler=0 / ip_ratio=1.40 / aq=1:1.00
Language : German
Default : Yes
Forced : No
Color range : Limited
Color primaries : BT.709
Transfer characteristics : BT.709
Matrix coefficients : BT.709

Audio #1
ID : 2
Format : AC-3
Format/Info : Audio Coding 3
Commercial name : Dolby Digital
Codec ID : A_AC3
Duration : 1 h 29 min
Bit rate mode : Constant
Bit rate : 192 kb/s
Channel(s) : 2 channels
Channel layout : L R
Sampling rate : 48.0 kHz
Frame rate : 31.250 FPS (1536 SPF)
Bit depth : 16 bits
Compression mode : Lossy
Delay relative to video : -5 ms
Stream size : 123 MiB (4%)
Language : Ukrainian
Service kind : Complete Main
Default : Yes
Forced : Yes

Audio #2
ID : 3
Format : AC-3
Format/Info : Audio Coding 3
Commercial name : Dolby Digital
Codec ID : A_AC3
Duration : 1 h 29 min
Bit rate mode : Constant
Bit rate : 384 kb/s
Channel(s) : 2 channels
Channel layout : L R
Sampling rate : 48.0 kHz
Frame rate : 31.250 FPS (1536 SPF)
Bit depth : 16 bits
Compression mode : Lossy
Stream size : 246 MiB (8%)
Title : Stereo
Language : German
Service kind : Complete Main
Default : No
Forced : No
Скріншоти





Джерело:


 Трекер:    Зареєстрований   

Завантажити / скачати фільм українською



відео для новачків



 Зареєстрований:   2019-10-04 01:32
 Розмір:   3.01 GB 
 Оцінка фільму:   10/10 (Голосів: 4)
   
taksist 
VIP


З нами з: 10.12.12
Востаннє: 21.09.20
Повідомлень: 410

2019-10-04 02:21  
чому два а не дві.
jaral 
Забанено
Забанено


З нами з: 18.10.07
Востаннє: 21.01.20
Повідомлень: 977

2019-10-04 03:19  
taksist Може, тому що, редакторів професійного перекладу ніколи не карали за погано відведену працю та не звільняли перекладача за неякісний переклад?
DDBj 
VIP


З нами з: 09.01.12
Востаннє: 21.09.20
Повідомлень: 718

2019-10-04 05:57  
taksist написано:
чому два а не дві.

Бо "собака" в українській мові чоловічого роду, на відміну від заліссян. Але тут, наскільки бачу з картинки, собаки різностатеві й явно не два.

igor911 
Модератор відео


З нами з: 18.01.08
Востаннє: 22.09.20
Повідомлень: 14999

2019-10-04 09:05  
Автор релізу написано:

Оскільки у відеоряді присутнє лого супутникового телеканалу виправив якість на . Також додав посилання пошук релізів обох частин цього фільму.

Anonymous 







2019-10-04 15:00  
igor911 написано:
Оскільки у відеоряді присутнє лого супутникового телеканалу виправив якість на

можна посперечатись (див. МІ), але Вам видніше
igor911 написано:
Також додав посилання пошук релізів обох частин цього фільму

попросив би більше не змінювати оформлення релізів, особливо "Джерело озвучення"
Вам так подобається, а я пишу згідно майстра... виправляйте краще Сергійкові релізи

Electroz 
Відео Гуртом - підтримка та поширення
Відео Гуртом - підтримка та поширення


З нами з: 18.09.14
Востаннє: 22.09.20
Повідомлень: 4013

2019-10-04 15:31  
Anonymous написано:

попросив би більше не змінювати оформлення релізів, особливо "Джерело озвучення"
Вам так подобається, а я пишу згідно майстра

А ще Стас модерує розділ музики...
Нічого, що той майстер ніхто не оновлює вже 10 років?

Anonymous 







2019-10-04 15:39  
Electroz написано:
А ще Стас модерує розділ музики...

??
який стосунок це має до оформлення відео?
Electroz написано:
Нічого, що той майстер ніхто не оновлює вже 10 років?

ще раз "??"
в майстрі є рядок "Джерело озвучення"
якщо він Вам особисто не подобається, то пишіть як завгодно (чи як дозволять модератори)
мені таке написання підходить, навіщо змінювати згідно чиїхось захцянок?

Ваш часовий пояс: GMT + 2 Години

Нова тема   Відповісти