Таксист / Taxi Driver (1976) [4K Remastered] 1080p H.265 2xUkr/Eng | Sub Eng

Нові коментарі

Нова тема   Відповісти
Автор Повідомлення
Anonymous 







2019-10-03 23:02  
Таксист / Taxi Driver (1976) [4K Remastered] 1080p H.265 2xUkr/Eng | Sub Eng

Таксист / Taxi Driver (1976) [4K Remastered] 1080p H.265 2xUkr/Eng | Sub Eng


Жанр: трилер, драма, кримінальний
Країна: США
Кінокомпанія: Columbia Pictures Corporation, Bill/Phillips, Italo/Judeo Productions
Режисер: Мартін Скорсезе
Актори: Роберт Де Ніро (Robert De Niro), Сібіл Шеперд (Cybill Shepherd), Пітер Бойл (Peter Boyle), Джоді Фостер (Jodie Foster), Гарві Кейтель (Harvey Keitel), Леонард Гаріс (Leonard Harris), Альберт Брукс (Albert Brooks), Мартін Скорсезе (Martin Scorsese) та інші

Сюжет:
Тьмяне світло сліпих ліхтарів, кістяки фабричних труб, задихаються у власному диму. Вавілонські башти хмарочоси, все це - пекло Нового часу, Нью-Йорк. Ветеран в'єтнамської війни Трейвіс Бікл веде своє самотнє таксі по нічним вулицях нескінченного міста, і перед ним розгортається похмура панорама людських гріхів. Він сподівається, що одного разу небеса пошлют на землю рятівний дощ, який очистить Нью-Йорк від вікового бруду. А коли вмирає надія, залишається тільки ненависть. Огняна злива обрушиться на голови грішникам. Таксист подбає про це.

Тривалість: 01:53:47
Якість:

Відео:
кодек: H.265 (HEVC)
розмір кадру: 1920 x 1036
бітрейт: 7 620 кб/с
бітова глибина: 10 біт

Увага! Перед завантаженням переконайтесь, що ваш пристрій відтворення (та/або ПЗ) підтримує H.265 (HEVC)

Аудіо # 1:
мова: українська
переклад: багатоголосий закадровий
кодек: AC-3 2.0
бітрейт: 192 кб/с

Аудіо # 2:
мова: українська
переклад: багатоголосий закадровий
кодек: AC-3 5.1
бітрейт: 448 кб/с

Аудіо # 3:
мова: англійська
переклад: оригінал
кодек: 5.1
бітрейт: 1510 кб/с

Субтитри # 1: (Full)
мова: англійська
тип: програмні (м'які)
формат: *.srt


Info
Код:
General
Unique ID                                : 208412595440591376307027493346669013410 (0x9CCACE4B2DFAB7A54C403AEE80D0A9A2)
Complete name                            : Taxi Driver (1976) [4K Remastered] 1080p H.265 [2xUKR_ENG] [Hurtom].
Format                                   :
Format version                           : Version 4
File size                                : 7.77 GiB
Duration                                 : 1 h 53 min
Overall bit rate                         : 9 771 kb/s
Movie name                               : Таксист / Taxi Driver (1976)
Encoded date                             : UTC 2019-10-01 07:45:18
Writing application                      : v20.0.0 ('I Am The Sun') 64-bit
Writing library                          : libebml v1.3.5 + v1.4.8
Cover                                    : Yes
Attachments                              : Cover.jpg

Video
ID                                       : 1
Format                                   : HEVC
Format/Info                              : High Efficiency Video Coding
Format profile                           : Main [email protected]@High
Codec ID                                 : V_MPEGH/ISO/HEVC
Duration                                 : 1 h 53 min
Bit rate                                 : 7 620 kb/s
Width                                    : 1 920 pixels
Height                                   : 1 036 pixels
Display aspect ratio                     : 1.85:1
Frame rate mode                          : Constant
Frame rate                               : 23.976 (24000/1001) FPS
Color space                              : YUV
Chroma subsampling                       : 4:2:0
Bit depth                                : 10 bits
Bits/(Pixel*Frame)                       : 0.160
Stream size                              : 6.06 GiB (78%)
Title                                    : Таксист / Taxi Driver (1976)
Writing library                          : x265 2.7+340-aa9102400f24:[Windows][GCC 8.0.1][64 bit] 10bit
Encoding settings                        : cpuid=1049583 / frame-threads=4 / numa-pools=4 / wpp / no-pmode / no-pme / no-psnr / no-ssim / log-level=2 / input-csp=1 / input-res=1920x1036 / interlace=0 / total-frames=163704 / level-idc=0 / high-tier=1 / uhd-bd=0 / ref=5 / no-allow-non-conformance / no-repeat-headers / annexb / no-aud / no-hrd / info / hash=0 / no-temporal-layers / open-gop / min-keyint=24 / keyint=240 / gop-lookahead=0 / bframes=8 / b-adapt=2 / b-pyramid / bframe-bias=0 / rc-lookahead=40 / lookahead-slices=4 / scenecut=40 / radl=0 / no-intra-refresh / ctu=64 / min-cu-size=8 / rect / no-amp / max-tu-size=32 / tu-inter-depth=3 / tu-intra-depth=3 / limit-tu=4 / rdoq-level=2 / dynamic-rd=0.00 / no-ssim-rd / signhide / no-tskip / nr-intra=0 / nr-inter=0 / no-constrained-intra / no-strong-intra-smoothing / max-merge=3 / limit-refs=2 / limit-modes / me=3 / subme=7 / merange=57 / temporal-mvp / weightp / weightb / no-analyze-src-pics / deblock=-3:-3 / no-sao / no-sao-non-deblock / rd=4 / no-early-skip / rskip / no-fast-intra / no-tskip-fast / no-cu-lossless / no-b-intra / no-splitrd-skip / rdpenalty=0 / psy-rd=2.00 / psy-rdoq=1.00 / no-rd-refine / no-lossless / cbqpoffs=0 / crqpoffs=0 / rc=crf / crf=19.5 / qcomp=0.60 / qpstep=4 / stats-write=0 / stats-read=0 / vbv-maxrate=50000 / vbv-bufsize=50000 / vbv-init=0.9 / crf-max=0.0 / crf-min=0.0 / ipratio=1.40 / pbratio=1.30 / aq-mode=1 / aq-strength=1.00 / cutree / zone-count=0 / no-strict-cbr / qg-size=32 / no-rc-grain / qpmax=69 / qpmin=0 / no-const-vbv / sar=1 / overscan=0 / videoformat=5 / range=0 / colorprim=1 / transfer=1 / colormatrix=1 / chromaloc=0 / display-window=0 / max-cll=0,0 / min-luma=0 / max-luma=1023 / log2-max-poc-lsb=8 / vui-timing-info / vui-hrd-info / slices=1 / no-opt-qp-pps / no-opt-ref-list-length-pps / no-multi-pass-opt-rps / scenecut-bias=0.05 / no-opt-cu-delta-qp / no-aq-motion / no-hdr / no-hdr-opt / no-dhdr10-opt / no-idr-recovery-sei / analysis-reuse-level=5 / scale-factor=0 / refine-intra=0 / refine-inter=0 / refine-mv=0 / no-limit-sao / ctu-info=0 / no-lowpass-dct / refine-mv-type=0 / copy-pic=1 / max-ausize-factor=1.0 / no-dynamic-refine / no-single-sei
Language                                 : English
Default                                  : Yes
Forced                                   : No
Color range                              : Limited
Color primaries                          : BT.709
Transfer characteristics                 : BT.709
Matrix coefficients                      : BT.709

Audio #1
ID                                       : 2
Format                                   : AC-3
Format/Info                              : Audio Coding 3
Commercial name                          : Dolby Digital
Codec ID                                 : A_AC3
Duration                                 : 1 h 53 min
Bit rate mode                            : Constant
Bit rate                                 : 192 kb/s
Channel(s)                               : 2 channels
Channel layout                           : L R
Sampling rate                            : 48.0 kHz
Frame rate                               : 31.250 FPS (1536 SPF)
Bit depth                                : 16 bits
Compression mode                         : Lossy
Stream size                              : 156 MiB (2%)
Title                                    : / 2.0 Ch / 192 kbps / БЗ / AMC
Language                                 : Ukrainian
Service kind                             : Complete Main
Default                                  : Yes
Forced                                   : Yes

Audio #2
ID                                       : 3
Format                                   : AC-3
Format/Info                              : Audio Coding 3
Commercial name                          : Dolby Digital
Codec ID                                 : A_AC3
Duration                                 : 1 h 53 min
Bit rate mode                            : Constant
Bit rate                                 : 448 kb/s
Channel(s)                               : 6 channels
Channel layout                           : L R C LFE Ls Rs
Sampling rate                            : 48.0 kHz
Frame rate                               : 31.250 FPS (1536 SPF)
Bit depth                                : 16 bits
Compression mode                         : Lossy
Stream size                              : 365 MiB (5%)
Title                                    : / 5.1 Ch / 448 kbps / БЗ / Inter
Language                                 : Ukrainian
Service kind                             : Complete Main
Default                                  : No
Forced                                   : No

Audio #3
ID                                       : 4
Format                                   :
Format/Info                              : Digital Theater Systems
Codec ID                                 : A_DTS
Duration                                 : 1 h 53 min
Bit rate mode                            : Constant
Bit rate                                 : 1 509 kb/s
Channel(s)                               : 6 channels
Channel layout                           : C L R Ls Rs LFE
Sampling rate                            : 48.0 kHz
Frame rate                               : 93.750 FPS (512 SPF)
Bit depth                                : 16 bits
Compression mode                         : Lossy
Stream size                              : 1.20 GiB (15%)
Title                                    : / 5.1 Ch / 1509 kbps / Original
Language                                 : English
Default                                  : No
Forced                                   : No

Text
ID                                       : 5
Format                                   : UTF-8
Codec ID                                 : S_TEXT/UTF8
Codec ID/Info                            : UTF-8 Plain Text
Duration                                 : 1 h 48 min
Bit rate                                 : 54 b/s
Count of elements                        : 1220
Stream size                              : 43.5 KiB (0%)
Title                                    : Full
Language                                 : English
Default                                  : No
Forced                                   : No

Menu
00:00:00.000                             : :Start
00:10:59.033                             : :Tom and Betsy
00:20:05.037                             : :A New Volunteer
00:28:21.032                             : :Charles Palantine
00:33:12.198                             : :A Date with Betsy
00:40:11.575                             : :Curbside Cuckhold
00:44:03.640                             : :A Word with Wizard
00:51:42.140                             : :Running Into Iris
01:01:10.541                             : :Henry Krinkle
01:08:11.796                             : :Market Robbery
01:14:49.026                             : :Looking for Action
01:24:46.039                             : :Breakfast with Iris
01:29:42.752                             : :Dancing with Sport
01:34:11.979                             : :The Palantine Rally
01:38:02.418                             : :"Suck on This."
01:45:57.893                             : :"Dear Mr. Bickle."
Світлини




Джерело: &
Особиста оцінка: 5 - позіхав


Срібний реліз (на рейтинг впливає 50% завантаженого)
 Трекер:    Зареєстрований   

Завантажити / скачати фільм українською



відео для новачків



 Зареєстрований:   2019-10-03 23:02
 Розмір:   7.77 GB 
 Оцінка фільму:   9/10 (Голосів: 9)
   
Інші релізи
   Таксист / Taxi Driver (1976) 1080p 2xUkr/Eng | Sub Eng kvvdvd  6 / 0   11.42 GB   2016-11-26 10:11 
   Таксист / Taxi Driver (1976) 2xUkr/Eng Arsenfpu  18 / 0   2.14 GB   2016-09-14 22:15 
   Таксист / Taxi Driver (1976) Remux Ukr/Eng | sub Eng SkiF  3 / 0   21.18 GB   2014-07-26 18:53 
   Таксист / Taxi Driver (1976) 720p Ukr/Eng | Sub Eng Hurtomivets  5 / 0   6.83 GB   2011-09-08 15:36 
   Таксист / Taxi Driver (1976) Ukr/Eng | sub Eng JACKUS  3 / 0   2.18 GB   2011-05-22 13:41 
Anonymous 







2019-10-05 21:25  
Мені одному фільм не сподобався? Не розумію, за що такий рейтинг на IMDB.
range 
Новенький


З нами з: 20.07.08
Востаннє: 18.01.21
Повідомлень: 19

2019-10-22 19:42  
[b]Anonymous[/b]
Розуміння з часом прийде... Або ні.

colltmkk 
Новенький


З нами з: 31.03.14
Востаннє: 20.01.21
Повідомлень: 4

2021-01-02 16:22  
Привіт.
Встаньте на роздачу, буду вельми вдячний

Ваш часовий пояс: GMT + 2 Години

Нова тема   Відповісти