Розарія / Die Fremde und das Dorf (2014) 720p Ukr/Ger

Нові коментарі

Нова тема   Відповісти
Останній раз роздавалося mavitya (2020-09-24)
Автор Повідомлення
Anonymous 







2019-10-03 14:44  
Розарія / Die Fremde und das Dorf (2014) 720p Ukr/Ger

Розарія / Die Fremde und das Dorf (2014) 720p Ukr/Ger


Жанр: драма
Країна: Австрія



Кінокомпанія: FILM27 Multimedia Produktions GmbH, ZDF, ORF
Режисер: Петер Кеглевіч
Актори: Генрієта Конфуріус, Мануєль Рубі, Макс фон Тун, Август Шмєльцер, Саскія Вестер, Франц Солар, Піа Бареш, Франциска Вайс, Франциска Вальзер, Гернот Хас, Вольфганг Раух, Енцо Гаєр, Гудрун Голоб, Доріс П. Кофлер, Штефан Матош, Клаус Ортнер

Сюжет:
Розарія педагог, вона втратила всю свою сім'ю під час великого землетрусу. Щоб залікувати травми вона їде до селища. Прекрасна італійка відразу викликала інтерес братів Йозефа і Франца. Розарія закохується в Йозефа та приймає рішення не повертатися на батьківщину. Серйозні сімейні конфлікти, осуд Франца і міжусобиці в сільській громаді загрожують знищити новий початок кохання.


Тривалість: 01:29:34
Якість:
Відео:
кодек:
розмір кадру: 1280 х 720
бітрейт: 3093 кб/с

Аудіо # 1:
мова: українська
переклад: багатоголосий закадровий
кодек: 2.0
бітрейт: 192 кб/с

Аудіо # 2:
мова: німецька
переклад: оригінал
кодек: 2.0
бітрейт: 192 кб/с

Джерело озвучення:
Компанія КіТ
Info
General
Unique ID : 34104693531442489315801603447207864469 (0x19A85336957FE100F68594083B39A895)
Complete name : Die Fremde und das Dorf (2014) 720p [Ukr_Ger] [Hurtom].
Format :
Format version : Version 4
File size : 2.18 GiB
Duration : 1 h 29 min
Overall bit rate : 3 480 kb/s
Movie name : Розарія (2014)
Encoded date : UTC 2019-10-03 11:01:54
Writing application : v37.0.0 ('Leave It') 32-bit
Writing library : libebml v1.3.9 + v1.5.2
Cover : Yes
Attachments : cover.jpg

Video
ID : 1
Format : AVC
Format/Info : Advanced Video Codec
Format profile : [email protected]
Format settings : CABAC / 5 Ref Frames
Format settings, CABAC : Yes
Format settings, ReFrames : 5 frames
Codec ID : V_MPEG4/ISO/AVC
Duration : 1 h 29 min
Bit rate : 3 093 kb/s
Width : 1 280 pixels
Height : 720 pixels
Display aspect ratio : 16:9
Frame rate mode : Constant
Frame rate : 25.000 FPS
Color space : YUV
Chroma subsampling : 4:2:0
Bit depth : 8 bits
Scan type : Progressive
Bits/(Pixel*Frame) : 0.134
Stream size : 1.94 GiB (89%)
Writing library : core 148 r2744 b97ae06
Encoding settings : cabac=1 / ref=5 / deblock=1:-3:-3 / analyse=0x3:0x133 / me=umh / subme=8 / psy=1 / psy_rd=1.00:0.15 / mixed_ref=1 / me_range=16 / chroma_me=1 / trellis=1 / 8x8dct=1 / cqm=0 / deadzone=21,11 / fast_pskip=0 / chroma_qp_offset=-3 / threads=12 / lookahead_threads=2 / sliced_threads=0 / nr=0 / decimate=1 / interlaced=0 / bluray_compat=0 / constrained_intra=0 / bframes=3 / b_pyramid=2 / b_adapt=2 / b_bias=0 / direct=3 / weightb=1 / open_gop=0 / weightp=2 / keyint=240 / keyint_min=24 / scenecut=40 / intra_refresh=0 / rc_lookahead=50 / rc=crf / mbtree=1 / crf=19.0 / qcomp=0.60 / qpmin=0 / qpmax=69 / qpstep=4 / ip_ratio=1.40 / aq=1:1.00
Language : German
Default : Yes
Forced : No

Audio #1
ID : 2
Format : AC-3
Format/Info : Audio Coding 3
Commercial name : Dolby Digital
Codec ID : A_AC3
Duration : 1 h 29 min
Bit rate mode : Constant
Bit rate : 192 kb/s
Channel(s) : 2 channels
Channel layout : L R
Sampling rate : 48.0 kHz
Frame rate : 31.250 FPS (1536 SPF)
Bit depth : 16 bits
Compression mode : Lossy
Stream size : 123 MiB (6%)
Language : Ukrainian
Service kind : Complete Main
Default : Yes
Forced : Yes

Audio #2
ID : 3
Format : AC-3
Format/Info : Audio Coding 3
Commercial name : Dolby Digital
Codec ID : A_AC3
Duration : 1 h 29 min
Bit rate mode : Constant
Bit rate : 192 kb/s
Channel(s) : 2 channels
Channel layout : L R
Sampling rate : 48.0 kHz
Frame rate : 31.250 FPS (1536 SPF)
Bit depth : 16 bits
Compression mode : Lossy
Stream size : 123 MiB (6%)
Language : German
Service kind : Complete Main
Default : No
Forced : No
Скріншоти





Джерело:


 Трекер:    Зареєстрований   

Завантажити / скачати фільм українською



відео для новачків



 Зареєстрований:   2019-10-03 14:44
 Розмір:   2.18 GB 
 Оцінка фільму:   10/10 (Голосів: 1)
   
Інші релізи
   Розарія / Die Fremde und das Dorf (2014) kicyunya  2 / 0   1.46 GB   2017-02-06 11:42 
Ваш часовий пояс: GMT + 2 Години

Нова тема   Відповісти