Почни спочатку / Second Act (2018) 720p Ukr/Eng | Sub Eng

Нові коментарі

Нова тема   Відповісти
Автор Повідомлення
Anonymous 







2019-10-03 10:27  
Почни спочатку / Second Act (2018) 720p Ukr/Eng | Sub Eng

Почни спочатку / Second Act (2018) 720p Ukr/Eng | Sub Eng


Жанр: комедія, романтичний
Країна: США



Кінокомпанія: STX Entertainment
Режисер: Пітер Сіґал
Актори: Дженніфер Лопес, Ванесса Енн Хадженс, Леа Реміні, Тріт Вільямс, Майло Вентімілья, Аннали Ешфорд, Шарлін Йі, Алан Айзенберг, Фредді Строма, Дейв Фолі

Сюжет:
Кембридж, Гарвард, Єль – жоден із цих університетів не закінчувала Майя. Вона стійко вірить, що жоден диплом не переплюне справжнісінький талант і бажання до роботи. Сорокарічна жінка мріє довести всім навколо, що вона краща за цих дипломованих снобів. У цьому їй вирішив допомогти друг, створивши для неї фейкову сторінку в соцмережах, трохи прикрасивши її досягнення. Ну і в резюме додав крихту креативу. В загальному. Майю з радістю прийняли до великої компанії, де вона нарешті зможе довести всім свою крутість. Це старт для її нового життя – головне не забувати, хто ти насправді.


Тривалість: 01:44:01
Якість: 720p

Відео:
кодек:
розмір кадру: 1280x536
бітрейт: 7941 кб/с

Аудіо # 1:
мова: українська
переклад: професійний дубльований
кодек: 2.0 (стерео)
бітрейт: 192 кб/с

Джерело озвучення:


Аудіо # 2:
мова: англійська
переклад: оригінал
кодек: 5.1
бітрейт: 640 кб/с

Субтитри 1-3: (Full, SDH, SDH-Colored)
мова: англійська
тип: програмні (м'які)
формат: *.srt

Збережено оригінальні розділи, як на Blu-ray.
Info
Код:
General
Complete name                            : Second Act (2018) 720p [Ukr_Eng] [Video_Hurtom].
Format                                   :
Format version                           : Version 4
File size                                : 6.35 GiB
Duration                                 : 1 h 44 min
Overall bit rate                         : 8 735 kb/s
Encoded date                             : UTC 2019-10-02 18:24:48
Writing application                      : v30.1.0 ('Forever And More') 64-bit
Writing library                          : libebml v1.3.6 + v1.4.9
Cover                                    : Yes
Attachments                              : cover.jpg

Video
ID                                       : 1
Format                                   : AVC
Format/Info                              : Advanced Video Codec
Format profile                           : [email protected]
Format settings                          : CABAC / 12 Ref Frames
Format settings, CABAC                   : Yes
Format settings, RefFrames               : 12 frames
Codec ID                                 : V_MPEG4/ISO/AVC
Duration                                 : 1 h 44 min
Bit rate                                 : 7 941 kb/s
Width                                    : 1 280 pixels
Height                                   : 536 pixels
Display aspect ratio                     : 2.40:1
Frame rate mode                          : Constant
Frame rate                               : 23.976 (24000/1001) FPS
Color space                              : YUV
Chroma subsampling                       : 4:2:0
Bit depth                                : 8 bits
Scan type                                : Progressive
Bits/(Pixel*Frame)                       : 0.483
Stream size                              : 5.74 GiB (90%)
Title                                    : potroks
Writing library                          : core 157 r2935 545de2f
Encoding settings                        : cabac=1 / ref=12 / deblock=1:-1:-1 / analyse=0x3:0x133 / me=umh / subme=11 / psy=1 / psy_rd=1.05:0.05 / mixed_ref=1 / me_range=32 / chroma_me=1 / trellis=2 / 8x8dct=1 / cqm=0 / deadzone=21,11 / fast_pskip=0 / chroma_qp_offset=-3 / threads=9 / lookahead_threads=2 / sliced_threads=0 / nr=0 / decimate=0 / interlaced=0 / bluray_compat=0 / constrained_intra=0 / bframes=10 / b_pyramid=2 / b_adapt=2 / b_bias=0 / direct=3 / weightb=1 / open_gop=0 / weightp=2 / keyint=240 / keyint_min=23 / scenecut=40 / intra_refresh=0 / rc_lookahead=100 / rc=2pass / mbtree=0 / bitrate=7941 / ratetol=1.0 / qcomp=0.70 / qpmin=0 / qpmax=69 / qpstep=4 / cplxblur=20.0 / qblur=0.5 / vbv_maxrate=50000 / vbv_bufsize=62500 / nal_hrd=none / filler=0 / ip_ratio=1.40 / pb_ratio=1.30 / aq=1:0.70
Language                                 : English
Default                                  : Yes
Forced                                   : No

Audio #1
ID                                       : 2
Format                                   : AC-3
Format/Info                              : Audio Coding 3
Commercial name                          : Dolby Digital
Codec ID                                 : A_AC3
Duration                                 : 1 h 44 min
Bit rate mode                            : Constant
Bit rate                                 : 192 kb/s
Channel(s)                               : 2 channels
Channel layout                           : L R
Sampling rate                            : 48.0 kHz
Frame rate                               : 31.250 FPS (1536 SPF)
Bit depth                                : 16 bits
Compression mode                         : Lossy
Stream size                              : 143 MiB (2%)
Title                                    : UKR | DD 2.0 @ 192 kbps
Language                                 : Ukrainian
Service kind                             : Complete Main
Default                                  : Yes
Forced                                   : No

Audio #2
ID                                       : 3
Format                                   : AC-3
Format/Info                              : Audio Coding 3
Commercial name                          : Dolby Digital
Codec ID                                 : A_AC3
Duration                                 : 1 h 44 min
Bit rate mode                            : Constant
Bit rate                                 : 640 kb/s
Channel(s)                               : 6 channels
Channel layout                           : L R C LFE Ls Rs
Sampling rate                            : 48.0 kHz
Frame rate                               : 31.250 FPS (1536 SPF)
Bit depth                                : 16 bits
Compression mode                         : Lossy
Stream size                              : 476 MiB (7%)
Title                                    : Original | DD 5.1 @ 640 kbps
Language                                 : English
Service kind                             : Complete Main
Default                                  : No
Forced                                   : No

Text #1
ID                                       : 4
Format                                   : UTF-8
Codec ID                                 : S_TEXT/UTF8
Codec ID/Info                            : UTF-8 Plain Text
Duration                                 : 1 h 36 min
Bit rate                                 : 82 b/s
Count of elements                        : 1731
Stream size                              : 57.9 KiB (0%)
Title                                    : Full
Language                                 : English
Default                                  : No
Forced                                   : No

Text #2
ID                                       : 5
Format                                   : UTF-8
Codec ID                                 : S_TEXT/UTF8
Codec ID/Info                            : UTF-8 Plain Text
Duration                                 : 1 h 40 min
Bit rate                                 : 84 b/s
Count of elements                        : 1848
Stream size                              : 62.1 KiB (0%)
Title                                    : SDH
Language                                 : English
Default                                  : No
Forced                                   : No

Text #3
ID                                       : 6
Format                                   : UTF-8
Codec ID                                 : S_TEXT/UTF8
Codec ID/Info                            : UTF-8 Plain Text
Duration                                 : 1 h 40 min
Bit rate                                 : 96 b/s
Count of elements                        : 1848
Stream size                              : 71.0 KiB (0%)
Title                                    : SDH-Colored
Language                                 : English
Default                                  : No
Forced                                   : No

Menu
00:00:00.000                             : en:Chapter 01
00:07:09.720                             : en:Chapter 02
00:13:40.402                             : en:Chapter 03
00:17:51.528                             : en:Chapter 04
00:22:17.377                             : en:Chapter 05
00:27:38.614                             : en:Chapter 06
00:33:52.196                             : en:Chapter 07
00:38:46.073                             : en:Chapter 08
00:45:02.324                             : en:Chapter 09
00:49:28.547                             : en:Chapter 10
00:55:15.228                             : en:Chapter 11
00:59:48.918                             : en:Chapter 12
01:04:46.299                             : en:Chapter 13
01:10:35.064                             : en:Chapter 14
01:15:03.874                             : en:Chapter 15
01:20:56.893                             : en:Chapter 16
01:25:36.923                             : en:Chapter 17
01:29:41.459                             : en:Chapter 18
01:33:19.427                             : en:Chapter 19
01:37:56.704                             : en:Chapter 20
Скріншоти


За українську доріжку подяка п.: Sando7
Джерело:
Особиста оцінка: 8 - мені сподобалося


 Трекер:    Зареєстрований   

Завантажити / скачати фільм українською



відео для новачків



 Зареєстрований:   2019-10-03 10:27
 Розмір:   6.35 GB 
 Оцінка фільму:   8.6/10 (Голосів: 14)
   
Інші релізи
   Почни спочатку / Second Act (2018) 1080p Ukr/Eng | Sub Eng antik_2008  4 / 0   13.13 GB   2019-10-03 10:46 
   Почни спочатку / Second Act (2018) Remux 1080p Ukr/Eng | Sub Eng antik_2008  4 / 0   25.92 GB   2019-10-03 10:39 
   Почни спочатку / Second Act (2018) Ukr/Eng antik_2008  9 / 0   1.98 GB   2019-10-03 10:09 
   Почни спочатку / Second Act (2018) AVC Ukr/Eng | Sub Eng Sando7  16 / 3   1.6 GB   2019-10-03 09:20 
Siegfried 
VIP


З нами з: 01.11.11
Востаннє: 20.09.20
Повідомлень: 325

2019-10-14 19:36  
Слабко.
Зовсім не чіпляє.
Можна сміло пропускати.

3/10

waldi-hurtom 
VIP


З нами з: 07.10.12
Востаннє: 26.09.20
Повідомлень: 1177

2019-10-16 20:51  
Не зовсім погано. Дженіфер Лопес, звісно, вже не та, але подивитись ще можна. 6 з 10.
Ваш часовий пояс: GMT + 2 Години

Нова тема   Відповісти