Вартові галактики / Guardians of the Galaxy (2014) UHD Remux 2160p 4K HDR H.265 Ukr/Eng | Sub Eng

Нові коментарі

Нова тема   Відповісти
Автор Повідомлення
Argentum 
Поважний учасник


З нами з: 25.09.11
Востаннє: 28.03.20
Повідомлень: 241

2019-10-02 17:55  
Вартові галактики / Guardians of the Galaxy (2014) UHD Remux 2160p 4K HDR H.265 Ukr/Eng | Sub Eng

Вартові галактики / Guardians of the Galaxy (2014) UHD Remux 2160p 4K HDR H.265 Ukr/Eng | Sub Eng


Жанр: пригодницький, екшн, фантастика
Країна: США



Кінокомпанія: Marvel Studios, Walt Disney Pictures
Режисер: Джеймс Ґанн
Актори: Кріс Пратт, Зої Салдана, Дейв Батіста, Він Дізель, Бредлі Купер, Лі Пейс, Майкл Рукер, Карен Ґіллан, Джімон Гонсу, Джон Сі Райлі, Бенісіо Дель Торо та інші.

Сюжет:
Пітер Квіл стає жертвою мисливців за головами після крадіжки таємничої сфери, за якою полював Ронан - могутній лиходій, повний амбіцій і загрозливий для цілого всесвіту. Щоб здолати Ронана, Пітеру доводиться об'єднатися з квартетом покидьків: озброєним до зубів єнотом Ракетою, деревоподібним гуманоїдом Ґрутом, смертельно небезпечною і загадковою Ґаморою і мстивим Драксом-Руйнівником. Але коли Пітер виявляє справжню силу сфери та дізнається наскільки вона небезпечна для космосу, він повинен зробити все можливе, щоб згуртувати всіх членів команди для останнього протистояння і повернути баланс у всій Галактиці...


Тривалість: 02:00:51
Якість: UHD Remux 2160p 4K
Відео:
кодек: H.265 (HEVC)
розмір кадру: 3840 х 2160
бітрейт: 49,6 Мб/с
бітова глибина: 10 біт
кольоровий простір: BT.2020 (HDR)

Увага! Перед завантаженням переконайтесь, що ваш пристрій відтворення (та/або ПЗ) підтримує H.265 (HEVC)

Аудіо # 1:
мова: українська
переклад: професійний дубльований | студія LeDoyen
кодек: -HD MA 5.1
бітрейт: 3862 кб/с
Інформація про дубляж

Пітер Квілл / Зоряний Лицар - Денис Толяренко
Ґамора - Ксенія Любчик
Дракс Руйнівник - Володимир Кокотунов
Ракета - Назар Задніпровський
Ґрут - Борис Георгієвський
Ронан - Михайло Кукуюк
Небула - Аліна Проценко
Танос - Михайло Кришталь
Йонду Удонта - Валерій Леґін
Креґлін - Дмитро Завадський
Денаріан Дей - Євген Лунченко
Денаріан Сааль - Олександр Завальський
Танеліір Тіван / Колекціонер - Андрій Твердак
Корат Переслідувач - Андрій Ісаєнко
Брокер - Владислав Пупков
Камео Стена Лі - Юрій Висоцький
титри - Андрій Мостренко
Дід Пітера Квілла- Олександр Ігнатуша
Малий Пітер Квілл - Назар Твердак

А також: Ігор Тімошенко, Володимир Ніколаєнко, Олександ Ролдугін, Володимир Жогло, Роман Чупіс, Сергій Озіряний, Ярослав Чорненький, Володимир Канівець, Олексій Череватенко, Сергій Солопай, В'ячеслав Дудко, Юрій Сосков, Світлана Штанько, Олена Борозенець, Оксана Поліщук, Марія Нікітенко, В'ячеслав Ніколенко, Катерина Башкіна-Зленко, Дмитро Бузинський, Юлія Шаповал.

Режисер дубляжу: - Іван Марченко
Переклад: - Сергій "SKA" Ковальчук
Аудіо # 2:
мова: українська
переклад: професійний дубльований | студія LeDoyen
кодек: 5.1
бітрейт: 640 кб/с

Аудіо # 3:
мова: англійська
переклад: оригінал
кодек: 5.1
бітрейт: 1509 кб/с

Субтитри:
мова: англійська
тип: програмні (м'які)
формат: *.srt
Info
General
Unique ID : 78274556242273236124697617277472666139 (0x3AE32194B057FDD7790783F90DDEF21B)
Complete name : Guardians of the Galaxy (2014) [Ukr, Eng] Remux 2160p [Hurtom].
Format :
Format version : Version 4
File size : 46.9 GiB
Duration : 2 h 1 min
Overall bit rate mode : Variable
Overall bit rate : 55.5 Mb/s
Movie name : Guardians of the Galaxy (2014)
Encoded date : UTC 2019-10-02 14:23:21
Writing application : v37.0.0 ('Leave It') 64-bit
Writing library : libebml v1.3.9 + v1.5.2
Attachments : 141007121258124631_f0_0.jpg

Video
ID : 1
Format : HEVC
Format/Info : High Efficiency Video Coding
Format profile : Main [email protected]@High
HDR format : SMPTE ST 2086, HDR10 compatible
Codec ID : V_MPEGH/ISO/HEVC
Duration : 2 h 0 min
Bit rate : 49.6 Mb/s
Width : 3 840 pixels
Height : 2 160 pixels
Display aspect ratio : 16:9
Frame rate mode : Constant
Frame rate : 23.976 (24000/1001) FPS
Color space : YUV
Chroma subsampling : 4:2:0 (Type 2)
Bit depth : 10 bits
Bits/(Pixel*Frame) : 0.249
Stream size : 41.8 GiB (89%)
Title : HEVC 3840*2160 HDR10 @ 49.6 Mb/s
Language : Multiple languages
Default : Yes
Forced : Yes
Color range : Limited
Color primaries : BT.2020
Transfer characteristics : PQ
Matrix coefficients : BT.2020 non-constant
Mastering display color pri : Display P3
Mastering display luminance : min: 0.0050 cd/m2, max: 4000 cd/m2
Maximum Content Light Level : 577 cd/m2
Maximum Frame-Average Light : 512 cd/m2

Audio #1
ID : 2
Format : XLL
Format/Info : Digital Theater Systems
Commercial name : -HD Master Audio
Codec ID : A_DTS
Duration : 2 h 1 min
Bit rate mode : Variable
Bit rate : 3 862 kb/s
Channel(s) : 6 channels
Channel layout : C L R Ls Rs LFE
Sampling rate : 48.0 kHz
Frame rate : 93.750 FPS (512 SPF)
Bit depth : 24 bits
Compression mode : Lossless
Stream size : 3.27 GiB (7%)
Title : -HD MA 5.1 @ 3 862 kb/s
Language : Ukrainian
Default : Yes
Forced : Yes

Audio #2
ID : 3
Format : AC-3
Format/Info : Audio Coding 3
Commercial name : Dolby Digital
Codec ID : A_AC3
Duration : 2 h 1 min
Bit rate mode : Constant
Bit rate : 640 kb/s
Channel(s) : 6 channels
Channel layout : L R C LFE Ls Rs
Sampling rate : 48.0 kHz
Frame rate : 31.250 FPS (1536 SPF)
Bit depth : 16 bits
Compression mode : Lossy
Stream size : 555 MiB (1%)
Title : AC-3 5.1 @ 640 kb/s
Language : Ukrainian
Service kind : Complete Main
Default : No
Forced : No

Audio #3
ID : 4
Format :
Format/Info : Digital Theater Systems
Codec ID : A_DTS
Duration : 2 h 0 min
Bit rate mode : Constant
Bit rate : 1 509 kb/s
Channel(s) : 6 channels
Channel layout : C L R Ls Rs LFE
Sampling rate : 48.0 kHz
Frame rate : 93.750 FPS (512 SPF)
Bit depth : 24 bits
Compression mode : Lossy
Stream size : 1.27 GiB (3%)
Title : 5.1 @ 1 509 kb/s
Language : English
Default : No
Forced : No

Text
ID : 5
Format : UTF-8
Codec ID : S_TEXT/UTF8
Codec ID/Info : UTF-8 Plain Text
Duration : 2 h 0 min
Bit rate : 47 b/s
Count of elements : 1418
Stream size : 42.1 KiB (0%)
Language : English
Default : No
Forced : No

Menu
00:00:00.000 : en:Chapter 01
00:04:05.703 : en:Chapter 02
00:11:21.806 : en:Chapter 03
00:15:21.420 : en:Chapter 04
00:20:54.419 : en:Chapter 05
00:27:10.920 : en:Chapter 06
00:33:58.578 : en:Chapter 07
00:44:28.290 : en:Chapter 08
00:50:53.008 : en:Chapter 09
00:55:17.564 : en:Chapter 10
00:59:45.206 : en:Chapter 11
01:06:06.921 : en:Chapter 12
01:14:45.647 : en:Chapter 13
01:22:20.644 : en:Chapter 14
01:26:29.726 : en:Chapter 15
01:30:23.501 : en:Chapter 16
01:35:58.377 : en:Chapter 17
01:40:46.582 : en:Chapter 18
01:47:35.365 : en:Chapter 19
01:53:16.289 : en:Chapter 20
02:00:10.661 : en:Chapter 21
Скріншоти









Джерело: &
Особиста оцінка: 10 - без зайвих вагань рекомендую всім!


Золотий реліз (завантажене не впливає на рейтинг)
 Трекер:    Зареєстрований   

Завантажити / скачати фільм українською



відео для новачків



 Зареєстрований:   2019-10-04 11:30
 Розмір:   46.93 GB 
 Оцінка фільму:   9.8/10 (Голосів: 5)
   
Інші релізи
   Вартові галактики / Guardians of the Galaxy (2014) 360p DmitryA  10 / 0   1.03 GB   2015-02-05 17:34 
   Вартові галактики / Guardians of the Galaxy (2014) 1080p Ukr/Eng | Sub Eng [IMAX Edition] neo3703  25 / 1   10.99 GB   2015-01-26 03:43 
   Вартові галактики / Guardians of the Galaxy (2014) 1080p 3D Ukr/Eng 3d_reliz  9 / 1   9.37 GB   2014-12-10 13:44 
   Вартові галактики / Guardians of the Galaxy (2014) Remux 1080p Ukr/Eng | Sub Eng [IMAX Edition] 11FrYkT  9 / 0   30.45 GB   2014-12-08 17:53 
   Вартові галактики / Guardians of the Galaxy (2014) 720p-mini (60fps) Drool  8 / 0   5.61 GB   2014-12-01 21:44 
   Вартові галактики / Guardians of the Galaxy (2014) AVC patriot2305  13 / 0   2 GB   2014-11-23 07:55 
   Вартові галактики / Guardians of the Galaxy (2014) Ukr/Eng Gelios  32 / 0   2.18 GB   2014-11-20 16:38 
   Вартові галактики / Guardians of the Galaxy (2014) 720p-mini | IMAX Drool  11 / 0   3.34 GB   2014-11-20 10:51 
   Вартові галактики / Guardians of the Galaxy (2014) patriot2305  31 / 0   1.45 GB   2014-11-19 15:43 
   Вартові галактики / Guardians of the Galaxy (2014) 1080p Ukr/Eng | Sub Eng 11FrYkT  24 / 0   13.55 GB   2014-11-18 07:22 
   Вартові галактики / Guardians of the Galaxy (2014) 720p Ukr/Eng | Sub Eng 11FrYkT  30 / 0   5.76 GB   2014-11-18 07:06 
DDBj 
VIP


З нами з: 09.01.12
Востаннє: 28.03.20
Повідомлень: 689

2019-10-03 16:50  
Argentum написано:
Пітер Квілл / Зоряний Лицар - Володимир Заєць

Ні. у цій частині ще Денис Толяренко.

У цьому релізі повна інфа про даббінґ, скопіюйте.
https://toloka.to/t60724

Argentum 
Поважний учасник


З нами з: 25.09.11
Востаннє: 28.03.20
Повідомлень: 241

2019-10-03 16:54  
DDBj написано:

У цьому релізі повна інфа про даббінґ, скопіюйте.
https://toloka.to/t60724

Дякую. Зараз подивлюся.

bot 
робот


З нами з: 30.09.07
Востаннє: 26.05.05
Повідомлень: 23724

2019-10-04 11:29  
Тему перенесено з Анонси релізів до форуму Фільми в HD


Argentum

Ваш часовий пояс: GMT + 2 Години

Нова тема   Відповісти