Єдиний постріл / A Single Shot (2013) AVC Eng | Sub Ukr/Eng

Нові коментарі

Нова тема   Відповісти
Автор Повідомлення
Anonymous 







2019-10-02 14:42  
Єдиний постріл / A Single Shot (2013) AVC Eng | Sub Ukr/Eng

Єдиний постріл / A Single Shot (2013) AVC Eng | Sub Ukr/Eng
Оригінальний постер:

Єдиний постріл / A Single Shot (2013) AVC Eng | Sub Ukr/Eng


Жанр: кримінальний, драма, трилер
Країна: США, Канада, Велика Британія



Кіностудія / кінокомпанія: A Single Shot Productions, Bron Studio, Demarest Films, Media House Capital, Unanimous Pictures, Unified Pictures
Режисер: Девід М. Розенталь / David M. Rosenthal
Актори: Сем Роквелл / Sam Rockwell, Джеффрі Райт / Jeffrey Wright, Келлі Райллі / Kelly Reilly, Джейсон Айзекс / Jason Isaacs, Джо Андерсон / Joe Anderson, Офелія Ловібонд / Ophelia Lovibond та інші

Сюжет:
Історія про те, як Джон Мун пішов на полювання та випадково застрелив молоду жінку. В неї він знайшов лист та велику суму грошей. Свій злочин він вирішив приховати...


Тривалість: 01:55:45
Якість: AVC
Відео:
кодек:
розмір кадру: 1024 х 424
бітрейт: 1950 кб/с

Аудіо:
мова: англійська
переклад: оригінал
кодек: 5.1
бітрейт: 384 кб/с

Субтитри # 1:
мова: українська, англійська
тип: програмні (м'які)
формат: srt
коригування: igor911

Субтитри # 2-3:
мова: англійська (повні, SDH)
тип: програмні (м'які)
формат:*srt

Збережено оригінальні розділи, як на Blu-ray
Info
Код:

Complete name               : A Single Shot (2013) [Eng sub.Ukr,Eng] AVC [Hurtom].
Format                      :
Format version              : Version 4
File size                   : 1.89 GiB
Duration                    : 1 h 55 min
Overall bit rate            : 2 333 kb/s
Movie name                  : Єдиний постріл / A Single Shot (2013) [Eng sub.Ukr,Eng] AVC [Hurtom]
Encoded date                : UTC 2019-10-02 12:25:38
Writing application         : v37.0.0 ('Leave It') 64-bit
Writing library             : libebml v1.3.9 + v1.5.2
Cover                       : Yes
Attachments                 : cover.jpg

Video
ID                          : 1
Format                      : AVC
Format/Info                 : Advanced Video Codec
Format profile              : [email protected]
Format settings             : CABAC / 10 Ref Frames
Format settings, CABAC      : Yes
Format settings, Reference  : 10 frames
Codec ID                    : V_MPEG4/ISO/AVC
Duration                    : 1 h 55 min
Bit rate                    : 1 950 kb/s
Width                       : 1 024 pixels
Height                      : 424 pixels
Display aspect ratio        : 2.40:1
Frame rate mode             : Constant
Frame rate                  : 23.976 (24000/1001) FPS
Color space                 : YUV
Chroma subsampling          : 4:2:0
Bit depth                   : 8 bits
Scan type                   : Progressive
Bits/(Pixel*Frame)          : 0.187
Stream size                 : 1.57 GiB (83%)
Title                       : Єдиний постріл / A Single Shot (2013) AVC [StarbirS]
Writing library             : core 133 r2334 a3ac64b
Encoding settings           : cabac=1 / ref=10 / deblock=1:-3:-3 / analyse=0x3:0x133 / me=umh / subme=11 / psy=1 / psy_rd=1.07:0.00 / mixed_ref=1 / me_range=48 / chroma_me=1 / trellis=2 / 8x8dct=1 / cqm=0 / deadzone=21,11 / fast_pskip=0 / chroma_qp_offset=0 / threads=12 / lookahead_threads=2 / sliced_threads=0 / nr=0 / decimate=1 / interlaced=0 / bluray_compat=0 / constrained_intra=0 / bframes=9 / b_pyramid=2 / b_adapt=2 / b_bias=0 / direct=3 / weightb=1 / open_gop=1 / weightp=2 / keyint=250 / keyint_min=23 / scenecut=40 / intra_refresh=0 / rc=2pass / mbtree=0 / bitrate=1950 / ratetol=1.0 / qcomp=0.60 / qpmin=10 / qpmax=51 / qpstep=4 / cplxblur=20.0 / qblur=0.5 / ip_ratio=1.40 / pb_ratio=1.30 / aq=1:0.60
Language                    : English
Default                     : Yes
Forced                      : No
Color range                 : Limited
Color primaries             : BT.709

Audio
ID                          : 2
Format                      : AC-3
Format/Info                 : Audio Coding 3
Commercial name             : Dolby Digital
Codec ID                    : A_AC3
Duration                    : 1 h 55 min
Bit rate mode               : Constant
Bit rate                    : 384 kb/s
Channel(s)                  : 6 channels
Channel layout              : L R C LFE Ls Rs
Sampling rate               : 48.0 kHz
Frame rate                  : 31.250 FPS (1536 SPF)
Compression mode            : Lossy
Stream size                 : 318 MiB (16%)
Title                       : Original, 5.1 384 Kbps
Language                    : English
Service kind                : Complete Main
Default                     : Yes
Forced                      : No

Text #1
ID                          : 3
Format                      : UTF-8
Codec ID                    : S_TEXT/UTF8
Codec ID/Info               : UTF-8 Plain Text
Duration                    : 1 h 54 min
Bit rate                    : 59 b/s
Count of elements           : 894
Stream size                 : 50.4 KiB (0%)
Title                       : Ukr Full [iTunes]
Language                    : Ukrainian
Default                     : Yes
Forced                      : No

Text #2
ID                          : 4
Format                      : UTF-8
Codec ID                    : S_TEXT/UTF8
Codec ID/Info               : UTF-8 Plain Text
Duration                    : 1 h 42 min
Bit rate                    : 43 b/s
Count of elements           : 1219
Stream size                 : 32.5 KiB (0%)
Title                       : Eng Full
Language                    : English
Default                     : No
Forced                      : No

Text #3
ID                          : 5
Format                      : UTF-8
Codec ID                    : S_TEXT/UTF8
Codec ID/Info               : UTF-8 Plain Text
Duration                    : 1 h 48 min
Bit rate                    : 49 b/s
Count of elements           : 1637
Stream size                 : 39.4 KiB (0%)
Title                       : Eng SDH
Language                    : English
Default                     : No
Forced                      : No

Menu
00:00:00.000                : en:Chapter 01
00:11:28.479                : en:Chapter 02
00:20:33.022                : en:Chapter 03
00:25:23.270                : en:Chapter 04
00:32:37.204                : en:Chapter 05
00:41:10.675                : en:Chapter 06
00:49:41.311                : en:Chapter 07
01:00:03.099                : en:Chapter 08
01:06:38.244                : en:Chapter 09
01:17:00.448                : en:Chapter 10
01:26:36.356                : en:Chapter 11
01:36:18.854                : en:Chapter 12
01:41:23.911                : en:Chapter 13
01:49:14.005                : en:Chapter 14
Cкріншоти






Джерело: & &
Подяка за постер dimon-2018.


 Трекер:    Зареєстрований   

Завантажити / скачати фільм українською



відео для новачків



 Зареєстрований:   2019-10-02 14:42
 Розмір:   1.89 GB 
 Оцінка фільму:   10/10 (Голосів: 2)
 ЗАЛИШАЙТЕСЬ ЯКОМОГА ДОВШЕ НА РОЗДАЧІ! ЗАВАНТАЖИВ САМ - ДАЙ ЗАВАНТАЖИТИ ІНШИМ!
   
Anonymous 







2019-10-02 14:48  
На заміну "мертвому" релізу https://toloka.to/t71646 . Реліз зібрано з нуля, в сабах виправлено помилки, додано повні англійські саби.
dimon-2018 
VIP


З нами з: 06.05.18
Востаннє: 27.11.20
Повідомлень: 526

2019-10-18 17:14  
Anonymous
украънський постер

Ваш часовий пояс: GMT + 2 Години

Нова тема   Відповісти