Ліга Чемпіонів 2019-2020 / Група С / 2 тур / Аталанта (Італія) - Шахтар Донецьк (Україна) / Футбол 1 HD (01.10.2019) 720р

Нові коментарі

Нова тема   Відповісти
Останній раз роздавалося marselyansky (2020-10-16)
Автор Повідомлення
Anonymous 







2019-10-02 11:18  
Ліга Чемпіонів 2019-2020 / Група С / 2 тур / Аталанта (Італія) - Шахтар Донецьк (Україна) / Футбол 1 HD (01.10.2019) 720р



Телеканал: Футбол 1 HD

Опис:
Ліга Чемпіонів 2019-2020 / Група С / 2 тур / Аталанта (Італія) - Шахтар Донецьк (Україна)
Тривалість:
01:52:48
Якість:
Відео:
кодек:
розмір кадру: 1280x720
бітрейт: ~3000 кб/с

Аудіо:
мова: українська
переклад: одноголосий закадровий | Круторогов Кирило Ігорович |
кодек: 2.0
бітрейт: 128 кб/с
Склади:
Скріншоти:


Info
Код:
General

Complete name                            : UEFA Champions League 2019-2020 » Group C » Matchday 2 » Atalanta - Shakhtar Donetsk 720p UA\Atalanta - Shakhtar Donetsk.
Format                                   :
Format version                           : Version 4
File size                                : 2.85 GiB
Duration                                 : 1 h 52 min
Overall bit rate                         : 3 614 kb/s
Writing application                      : VideoReDo (Lavf57.71.100)
Writing library                          : VideoReDo (Lavf57.71.100)
ErrorDetectionType                       : Per level 1

Video
ID                                       : 1
Format                                   : AVC
Format/Info                              : Advanced Video Codec
Format profile                           : [email protected]
Format settings                          : CABAC / 4 Ref Frames
Format settings, CABAC                   : Yes
Format settings, RefFrames               : 4 frames
Codec ID                                 : V_MPEG4/ISO/AVC
Duration                                 : 1 h 52 min
Bit rate                                 : 3 414 kb/s
Nominal bit rate                         : 1 714 kb/s
Width                                    : 1 280 pixels
Height                                   : 720 pixels
Display aspect ratio                     : 16:9
Frame rate mode                          : Constant
Frame rate                               : 50.000 FPS
Color space                              : YUV
Chroma subsampling                       : 4:2:0
Bit depth                                : 8 bits
Scan type                                : Progressive
Bits/(Pixel*Frame)                       : 0.074
Stream size                              : 2.69 GiB (94%)
Writing library                          : core 152 r2245
Encoding settings                        : cabac=1 / ref=4 / deblock=1:0:0 / analyse=0x3:0x113 / me=hex / subme=4 / psy=1 / psy_rd=1.00:0.00 / mixed_ref=0 / me_range=16 / chroma_me=1 / trellis=1 / 8x8dct=1 / cqm=0 / deadzone=21,11 / fast_pskip=1 / chroma_qp_offset=-2 / threads=22 / lookahead_threads=5 / sliced_threads=0 / nr=0 / decimate=1 / interlaced=0 / bluray_compat=0 / constrained_intra=0 / bframes=3 / b_pyramid=2 / b_adapt=1 / b_bias=0 / direct=1 / weightb=1 / open_gop=0 / weightp=1 / keyint=136 / keyint_min=13 / scenecut=0 / intra_refresh=0 / rc_lookahead=20 / rc=abr / mbtree=1 / bitrate=1714 / ratetol=1.0 / qcomp=0.60 / qpmin=0 / qpmax=69 / qpstep=4 / vbv_maxrate=24999 / vbv_bufsize=3750 / nal_hrd=none / filler=0 / ip_ratio=1.40 / aq=1:1.00
Default                                  : No
Forced                                   : No

Audio
ID                                       : 2
Format                                   : AC-3
Format/Info                              : Audio Coding 3
Commercial name                          : Dolby Digital
Codec ID                                 : A_AC3
Duration                                 : 1 h 52 min
Bit rate mode                            : Constant
Bit rate                                 : 128 kb/s
Channel(s)                               : 2 channels
Channel layout                           : L R
Sampling rate                            : 48.0 kHz
Frame rate                               : 31.250 FPS (1536 SPF)
Bit depth                                : 16 bits
Compression mode                         : Lossy
Stream size                              : 103 MiB (4%)
Language                                 : Ukrainian
Service kind                             : Complete Main
Default                                  : Yes
Forced                                   : No

Menu
00:00:00.000                             : :Chapter 0
00:57:27.040                             : :Title 2 : Chapter 1
Джерело:
Особиста оцінка: 2 - заснув


Бронзовий реліз (на рейтинг впливає 75% завантаженого)
 Трекер:    Зареєстрований   

Завантажити / скачати торрент



відео для новачків



 Зареєстрований:   2019-10-02 11:18
 Розмір:   2.85 GB 
 Оцінка:   9.3/10 (Голосів: 3)
   
Ваш часовий пояс: GMT + 2 Години

Нова тема   Відповісти