Керування гнівом (Контроль над гнівом) / Anger Management (2003) 1080p 3xUkr/Eng

Нові коментарі

Нова тема   Відповісти
Автор Повідомлення
Anonymous 







2019-10-01 14:46  
Керування гнівом (Контроль над гнівом) / Anger Management (2003) 1080p 3xUkr/Eng

Керування гнівом (Контроль над гнівом) / Anger Management (2003) 1080p 3xUkr/Eng


Жанр: комедія
Країна: США



Кінокомпанія: Revolution Studios, Happy Madison Productions, Anger Management LLC
Режисер: Пітер Сіґал
Актори: Адам Сандлер, Джек Ніколсон, Маріса Томей, Луіс Гузман, Аллен Коверт, Лінн Тігпен, Курт Фаллер, Джонатан Лоугрен

Сюжет:
Існує два типи агресивних людей - розповідає своєму пацієнтові доктор Райдел. - Перші, ти їх бачиш, коли йдеш в магазин і біля каси спостерігаєш за людиною, яка кричить на касира за те, що той не приймає його купон. Ці люди агресивні, але вони агресивні зовні. Другий тип - це інтровертні агресори. Це касир, який мовчки і з удаваною ввічливістю вислухає всі погрози в свою адресу, перетерпить, а через деякий час запалає гнівом, повернеться в магазин з автоматом і розстріляє весь персонал і покупців. У вас все гаразд з нервами? Дейв Базник теж думав, що він - абсолютно нормальна людина. Велике діло, разок наговорив грубощів стюардесі - буває, не стримався. І щоб за таку дрібницю людину направляли на курси «контролю над гнівом»?!


Тривалість: 01:45:02
Якість: 1080p
Відео:
кодек:
розмір кадру: 1920х800
бітрейт: 9556 кб/с

Аудіо # 1:
мова: українська
переклад: професійний дубльований
кодек: 2.0
бітрейт: 192 кб/с

Аудіо # 2:
мова: українська
переклад: багатоголосий закадровий
кодек: 2.0
бітрейт: 192 кб/с

Аудіо # 3:
мова: українська
переклад: багатоголосий закадровий
кодек: 5.1
бітрейт: 448 кб/с

Аудіо # 4:
мова: англійська
переклад: оригінал
кодек: 5.1
бітрейт: 640 кб/с
Info
General
Unique ID : 249852877267705368431049715323226435710 (0xBBF7E9EEEF84F8639989DDFD252A307E)
Complete name : H:\Toloka\2019\Anger Management (2003) 1080p.
Format :
Format version : Version 4
File size : 8.09 GiB
Duration : 1 h 45 min
Overall bit rate : 11.0 Mb/s
Encoded date : UTC 2019-10-01 11:38:46
Writing application : v6.1.0 ('Old Devil') built on Mar 4 2013 09:10:42
Writing library : libebml v1.3.0 + v1.4.0

Video
ID : 1
Format : AVC
Format/Info : Advanced Video Codec
Format profile : [email protected]
Format settings : CABAC / 5 Ref Frames
Format settings, CABAC : Yes
Format settings, RefFrames : 5 frames
Codec ID : V_MPEG4/ISO/AVC
Duration : 1 h 45 min
Bit rate : 9 556 kb/s
Width : 1 920 pixels
Height : 800 pixels
Display aspect ratio : 2.40:1
Frame rate mode : Constant
Frame rate : 23.976 (24000/1001) FPS
Color space : YUV
Chroma subsampling : 4:2:0
Bit depth : 8 bits
Scan type : Progressive
Bits/(Pixel*Frame) : 0.259
Stream size : 6.85 GiB (85%)
Writing library : core 133 r2334 a3ac64b
Encoding settings : cabac=1 / ref=5 / deblock=1:-3:-3 / analyse=0x3:0x113 / me=umh / subme=10 / psy=1 / psy_rd=1.00:0.10 / mixed_ref=1 / me_range=32 / chroma_me=1 / trellis=2 / 8x8dct=1 / cqm=0 / deadzone=21,11 / fast_pskip=0 / chroma_qp_offset=-3 / threads=6 / lookahead_threads=1 / sliced_threads=0 / nr=0 / decimate=0 / interlaced=0 / bluray_compat=0 / constrained_intra=0 / bframes=6 / b_pyramid=2 / b_adapt=2 / b_bias=0 / direct=3 / weightb=1 / open_gop=0 / weightp=2 / keyint=240 / keyint_min=23 / scenecut=40 / intra_refresh=0 / rc_lookahead=60 / rc=2pass / mbtree=1 / bitrate=9556 / ratetol=1.0 / qcomp=0.60 / qpmin=0 / qpmax=69 / qpstep=4 / cplxblur=20.0 / qblur=0.5 / ip_ratio=1.40 / aq=1:0.95
Language : English
Default : Yes
Forced : No

Audio #1
ID : 2
Format : AC-3
Format/Info : Audio Coding 3
Commercial name : Dolby Digital
Codec ID : A_AC3
Duration : 1 h 45 min
Bit rate mode : Constant
Bit rate : 192 kb/s
Channel(s) : 2 channels
Channel layout : L R
Sampling rate : 48.0 kHz
Frame rate : 31.250 FPS (1536 SPF)
Bit depth : 16 bits
Compression mode : Lossy
Stream size : 144 MiB (2%)
Title : UKR (НЛО-ТБ)
Language : Ukrainian
Service kind : Complete Main
Default : Yes
Forced : Yes

Audio #2
ID : 3
Format : AC-3
Format/Info : Audio Coding 3
Commercial name : Dolby Digital
Codec ID : A_AC3
Duration : 1 h 45 min
Bit rate mode : Constant
Bit rate : 192 kb/s
Channel(s) : 2 channels
Channel layout : L R
Sampling rate : 48.0 kHz
Frame rate : 31.250 FPS (1536 SPF)
Bit depth : 16 bits
Compression mode : Lossy
Stream size : 144 MiB (2%)
Title : UKR (AMC)
Language : Ukrainian
Service kind : Complete Main
Default : No
Forced : No

Audio #3
ID : 4
Format : AC-3
Format/Info : Audio Coding 3
Commercial name : Dolby Digital
Codec ID : A_AC3
Duration : 1 h 45 min
Bit rate mode : Constant
Bit rate : 448 kb/s
Channel(s) : 6 channels
Channel layout : L R C LFE Ls Rs
Sampling rate : 48.0 kHz
Frame rate : 31.250 FPS (1536 SPF)
Bit depth : 16 bits
Compression mode : Lossy
Stream size : 337 MiB (4%)
Title : UKR (Inter)
Language : Ukrainian
Service kind : Complete Main
Default : No
Forced : No

Audio #4
ID : 5
Format : AC-3
Format/Info : Audio Coding 3
Commercial name : Dolby Digital
Codec ID : A_AC3
Duration : 1 h 45 min
Bit rate mode : Constant
Bit rate : 640 kb/s
Channel(s) : 6 channels
Channel layout : L R C LFE Ls Rs
Sampling rate : 48.0 kHz
Frame rate : 31.250 FPS (1536 SPF)
Bit depth : 16 bits
Compression mode : Lossy
Stream size : 481 MiB (6%)
Title : ENG
Language : English
Service kind : Complete Main
Default : No
Forced : No

Menu
00:00:00.000 : en:Chapter 01
00:05:04.053 : en:Chapter 02
00:09:59.515 : en:Chapter 03
00:16:54.722 : en:Chapter 04
00:22:25.719 : en:Chapter 05
00:29:28.975 : en:Chapter 06
00:36:20.595 : en:Chapter 07
00:42:22.039 : en:Chapter 08
00:47:57.833 : en:Chapter 09
00:52:36.444 : en:Chapter 10
00:58:05.440 : en:Chapter 11
01:04:42.587 : en:Chapter 12
01:16:01.056 : en:Chapter 13
01:20:44.798 : en:Chapter 14
01:27:36.376 : en:Chapter 15
01:35:07.076 : en:Chapter 16
Скріншоти





Над доріжками працювали: МАКАРОННІК, rooster, slavik_v_z, Arsenfpu, Bohdan237, drop_plz
Особиста подяка пану denixx за надану матеріальну допомогу на підтримку цього і майбутніх релізів.
Джерело:


Срібний реліз (на рейтинг впливає 50% завантаженого)
 Трекер:    Зареєстрований   

Завантажити / скачати фільм українською



відео для новачків



 Зареєстрований:   2019-10-01 14:46
 Розмір:   8.09 GB 
 Оцінка фільму:   8/10 (Голосів: 9)
   
hetzendorf 
Забанено
Забанено


З нами з: 23.07.15
Востаннє: 18.09.20
Повідомлень: 2876

2019-10-05 00:40  
Рідкісна маячня! Не збагну, нащо я це лайно дивився?
1/10

ukraine2015 
Новенький


З нами з: 18.08.14
Востаннє: 19.09.20
Повідомлень: 24

2020-09-07 17:36  
Надзвичайно веселе кіно!
Ваш часовий пояс: GMT + 2 Години

Нова тема   Відповісти