Люди в чорному: Інтернешнл / Men in Black: International (2019) Ukr/Eng | Sub Ukr/Eng

Нові коментарі

Нова тема   Відповісти
Автор Повідомлення
Anonymous 







2019-10-01 09:12  
Люди в чорному: Інтернешнл / Men in Black: International (2019) Ukr/Eng | Sub Ukr/Eng

Люди в чорному: Інтернешнл / Men in Black: International (2019) Ukr/Eng | Sub Ukr/Eng
Альтернативні постери

Люди в чорному: Інтернешнл / Men in Black: International (2019) Ukr/Eng | Sub Ukr/Eng

Люди в чорному: Інтернешнл / Men in Black: International (2019) Ukr/Eng | Sub Ukr/Eng



Жанр: екшн, пригодницький, комедія, фантастика
Країна: США



Кінокомпанія: Columbia Pictures, Sony Pictures Entertainment (SPE), Amblin Entertainment
Режисер: Ф. Ґері Ґрей / F. Gary Gray
Актори: Кріс Гемсворт / Chris Hemsworth, Тесса Томпсон / Tessa Thompson, Ліам Нісон / Liam Neeson, Кумейл Нанджіані / Kumail Nanjiani, Ребекка Ферґюсон / Rebecca Ferguson, Рейф Спалл / Rafe Spall, Емма Томпсон / Emma Thompson, Лоран Буржуа / Laurent Bourgeois, Ларрі Буржуа / Larry Bourgeois, Спенсер Вілдінґ / Spencer Wilding та інші

Сюжет:
Ви навіть про це не підозрюєте, але існує таємна організація, яка охороняє Землю від різного роду інопланетян і дивних істот. Це Люди в чорному. Як не складно здогадатися, вони майже завжди в чорних ділових костюмах. У них є свої агенти в усіх великих містах на нашій планеті. У кожного з Людей в чорному є нереально круті стволи та пристосування, які допомагають стежити за порядком на Землі, щоб інопланетяни не турбували людей. Час від часу там навіть проводиться набір новачків – так у пару до Агента Н потрапила Агент М. Ці двоє точно добре спрацюються, адже це так весело стріляти по монстрам. Буде багато драйву.
Офіційні українські трейлери:




Рейтинг MPAA: PG-13 - дітям до 13 років перегляд не бажаний
Вікова категорія: 12+

Тривалість: 01:54:49
Якість:
Відео:
кодек:
розмір кадру: 704 x 352
бітрейт: 1815 кб/с

Аудіо # 1:
мова: українська
переклад: професійний дубльований
кодек: 5.1
бітрейт: 448 кб/с

Аудіо # 2:
мова: англійська
переклад: оригінал
кодек: 5.1
бітрейт: 448 кб/с

Субтитри # 1-2:
мова: українська (форсовані, повні)
тип: програмні (м'які)
формат: *.srt
переклад: Володимир Фатун

Субтитри # 3-4:
мова: англійська (повні, SDH)
тип: програмні (м'які)
формат: *.srt
Info
Код:
General
Complete name               : Men in Black International (2019) [Ukr,Eng] [Hurtom].avi
Format                      : AVI
Format/Info                 : Audio Video Interleave
Format profile              : OpenDML
File size                   : 2.19 GiB
Duration                    : 1 h 54 min
Overall bit rate            : 2 730 kb/s
Movie name                  : Люди в чорному: Інтернешнл / Men in Black: International (2019) [Ukr,Eng] [Hurtom]
Writing application         : VirtualDubModUkr 1.5.10.2 (build 2542/release)
Writing library             : VirtualDubMod build 2542/release

Video
ID                          : 0
Format                      : MPEG-4 Visual
Format profile              : Advanced [email protected]
Format settings             : BVOP1 / Custom Matrix
Format settings, BVOP       : 1
Format settings, QPel       : No
Format settings, GMC        : No warppoints
Format settings, Matrix     : Custom
Codec ID                    :
Codec ID/Hint               :
Duration                    : 1 h 54 min
Bit rate                    : 1 815 kb/s
Width                       : 704 pixels
Height                      : 352 pixels
Display aspect ratio        : 2.000
Frame rate                  : 23.976 (24000/1001) FPS
Color space                 : YUV
Chroma subsampling          : 4:2:0
Bit depth                   : 8 bits
Scan type                   : Progressive
Compression mode            : Lossy
Bits/(Pixel*Frame)          : 0.306
Stream size                 : 1.46 GiB (67%)
Writing library             : 73

Audio #1
ID                          : 1
Format                      : AC-3
Format/Info                 : Audio Coding 3
Commercial name             : Dolby Digital
Codec ID                    : 2000
Duration                    : 1 h 54 min
Bit rate mode               : Constant
Bit rate                    : 448 kb/s
Channel(s)                  : 6 channels
Channel layout              : L R C LFE Ls Rs
Sampling rate               : 48.0 kHz
Frame rate                  : 31.250 FPS (1536 SPF)
Compression mode            : Lossy
Stream size                 : 368 MiB (16%)
Alignment                   : Split across interleaves
Interleave, duration        : 42  ms (1.00 video frame)
Interleave, preload duratio : 500  ms
Title                       : Ukr Dub [BluRay]
Service kind                : Complete Main

Audio #2
ID                          : 2
Format                      : AC-3
Format/Info                 : Audio Coding 3
Commercial name             : Dolby Digital
Codec ID                    : 2000
Duration                    : 1 h 54 min
Bit rate mode               : Constant
Bit rate                    : 448 kb/s
Channel(s)                  : 6 channels
Channel layout              : L R C LFE Ls Rs
Sampling rate               : 48.0 kHz
Frame rate                  : 31.250 FPS (1536 SPF)
Compression mode            : Lossy
Stream size                 : 368 MiB (16%)
Alignment                   : Split across interleaves
Interleave, duration        : 42  ms (1.00 video frame)
Interleave, preload duratio : 500  ms
Title                       : Original
Service kind                : Complete Main



Джерело: & &
Особиста оцінка: 7 - мені сподобалося, гарний розважальний пригодницький фільм для родинного перегляду


 Трекер:    Зареєстрований   

Завантажити / скачати фільм українською



відео для новачків



 Зареєстрований:   2019-10-01 18:34
 Розмір:   2.19 GB 
 Оцінка фільму:   8.8/10 (Голосів: 15)
 ЗАЛИШАЙТЕСЬ ЯКОМОГА ДОВШЕ НА РОЗДАЧІ! ЗАВАНТАЖИВ САМ - ДАЙ ЗАВАНТАЖИТИ ІНШИМ!
   
bot 
робот


З нами з: 30.09.07
Востаннє: 26.05.05
Повідомлень: 22318

2019-10-01 18:34  
Тему перенесено з Анонси релізів до форуму Фільми


igor911

Sllavko 
Поважний учасник


З нами з: 10.06.12
Востаннє: 16.10.19
Повідомлень: 165

2019-10-01 22:41  
можна дивитися.. нудно не було
westhirurg 
Новенький


З нами з: 06.08.13
Востаннє: 18.10.19
Повідомлень: 7

2019-10-02 20:47  
Не шедевр, але сподобалось
Ваш часовий пояс: GMT + 2 Години

Нова тема   Відповісти