Острів проклятих / Shutter Island (2010) Remux 1080p 4xUkr/Eng | Sub Eng

Нові коментарі

Нова тема   Відповісти
Автор Повідомлення
Anonymous 







2019-10-01 04:26  
Острів проклятих / Shutter Island (2010) Remux 1080p 4xUkr/Eng | Sub Eng

Острів проклятих / Shutter Island (2010) Remux 1080p 4xUkr/Eng | Sub Eng


Жанр: містика, трилер, детектив
Країна: США





Кінокомпанія: Paramount Pictures, Phoenix Pictures, Sikelia Productions, Appian Way
Режисер: Мартін Скорсезе
Актори: Леонардо Ді Капріо, Марк Руффало, Бен Кінгслі, Макс фон Сюдов, Мішель Вільямс, Емілі Мортімер, Патріція Кларксон, Джекі Ерл Хейлі, Тед Левайн, Джон Керролл Лінч, Еліас Котеас та інші.

Сюжет:
Два американські судові пристави вирушають на один з островів в штаті Массачусетс для розслідування зникнення пацієнтки клініки для божевільних злочинців. При проведенні розслідування їм доведеться зіткнутися з павутиною брехні, ураганом і смертельним бунтом мешканців клініки, які кидають їх на острові як в пастці.


Тривалість: 02:18:04
Якість: Remux 1080p
Відео:
кодек:
розмір кадру: 1920x1080
бітрейт: ~27628 кб/с

Аудіо # 1:
мова: українська
переклад: професійний дубльований
кодек: 5.1
бітрейт: 448 кб/с

Аудіо # 2:
мова: українська
переклад: двоголосий закадровий
кодек: 2.0
бітрейт: 192 кб/с

Аудіо # 3:
мова: українська
переклад: багатоголосий закадровий
кодек: 2.0
бітрейт: 192 кб/с

Аудіо # 4:
мова: українська
переклад: багатоголосий закадровий
кодек: 2.0
бітрейт: 192 кб/с

Аудіо # 5:
мова: англійська
переклад: оригінал
кодек: 5.1
бітрейт: 640 кб/с

Аудіо # 6:
мова: англійська
переклад: оригінал
кодек: -HD MA 5.1
бітрейт: 4725 кб/с

Субтитри (Full, SDH):
мова: англійська
тип: програмні (м'які)
формат: *.pgs
Info
Код:
General
Complete name                            : Shutter Island (2010) Remux 1080p [UKR_ENG] [Video_Hurtom].
Format                                   :
Format version                           : Version 4
File size                                : 32.7 GiB
Duration                                 : 2 h 18 min
Overall bit rate mode                    : Variable
Overall bit rate                         : 34.0 Mb/s
Movie name                               : Shutter Island (2010) Remux 1080p [UKR_ENG] [Video_Hurtom]
Encoded date                             : UTC 2019-10-01 03:43:52
Writing application                      : v30.1.0 ('Forever And More') 64-bit
Writing library                          : libebml v1.3.6 + v1.4.9
Cover                                    : Yes
Attachments                              : cover.jpg

Video
ID                                       : 1
Format                                   : AVC
Format/Info                              : Advanced Video Codec
Format profile                           : [email protected]
Format settings                          : CABAC / 4 Ref Frames
Format settings, CABAC                   : Yes
Format settings, RefFrames               : 4 frames
Codec ID                                 : V_MPEG4/ISO/AVC
Duration                                 : 2 h 18 min
Bit rate mode                            : Variable
Bit rate                                 : 27.5 Mb/s
Maximum bit rate                         : 36.8 Mb/s
Width                                    : 1 920 pixels
Height                                   : 1 080 pixels
Display aspect ratio                     : 16:9
Frame rate mode                          : Constant
Frame rate                               : 23.976 (24000/1001) FPS
Color space                              : YUV
Chroma subsampling                       : 4:2:0
Bit depth                                : 8 bits
Scan type                                : Progressive
Bits/(Pixel*Frame)                       : 0.554
Stream size                              : 26.6 GiB (81%)
Default                                  : Yes
Forced                                   : No
Color range                              : Limited
Color primaries                          : BT.709
Transfer characteristics                 : BT.709
Matrix coefficients                      : BT.709

Audio #1
ID                                       : 2
Format                                   : AC-3
Format/Info                              : Audio Coding 3
Commercial name                          : Dolby Digital
Codec ID                                 : A_AC3
Duration                                 : 2 h 18 min
Bit rate mode                            : Constant
Bit rate                                 : 448 kb/s
Channel(s)                               : 6 channels
Channel layout                           : L R C LFE Ls Rs
Sampling rate                            : 48.0 kHz
Frame rate                               : 31.250 FPS (1536 SPF)
Bit depth                                : 16 bits
Compression mode                         : Lossy
Stream size                              : 442 MiB (1%)
Title                                    : UKR @ 448 Kbps | 5.1 | DUB, DVD
Language                                 : Ukrainian
Service kind                             : Complete Main
Default                                  : Yes
Forced                                   : No

Audio #2
ID                                       : 3
Format                                   : AC-3
Format/Info                              : Audio Coding 3
Commercial name                          : Dolby Digital
Codec ID                                 : A_AC3
Duration                                 : 2 h 18 min
Bit rate mode                            : Constant
Bit rate                                 : 192 kb/s
Channel(s)                               : 2 channels
Channel layout                           : L R
Sampling rate                            : 48.0 kHz
Frame rate                               : 31.250 FPS (1536 SPF)
Bit depth                                : 16 bits
Compression mode                         : Lossy
Stream size                              : 190 MiB (1%)
Title                                    : UKR @ 192 Kbps | 2.0 | DVO, 1+1
Language                                 : Ukrainian
Service kind                             : Complete Main
Default                                  : No
Forced                                   : No

Audio #3
ID                                       : 4
Format                                   : AC-3
Format/Info                              : Audio Coding 3
Commercial name                          : Dolby Digital
Codec ID                                 : A_AC3
Duration                                 : 2 h 18 min
Bit rate mode                            : Constant
Bit rate                                 : 192 kb/s
Channel(s)                               : 2 channels
Channel layout                           : L R
Sampling rate                            : 48.0 kHz
Frame rate                               : 31.250 FPS (1536 SPF)
Bit depth                                : 16 bits
Compression mode                         : Lossy
Stream size                              : 190 MiB (1%)
Title                                    : UKR @ 192 Kbps | 2.0 | MVO, ICTV
Language                                 : Ukrainian
Service kind                             : Complete Main
Default                                  : No
Forced                                   : No

Audio #4
ID                                       : 5
Format                                   : AC-3
Format/Info                              : Audio Coding 3
Commercial name                          : Dolby Digital
Codec ID                                 : A_AC3
Duration                                 : 2 h 18 min
Bit rate mode                            : Constant
Bit rate                                 : 192 kb/s
Channel(s)                               : 2 channels
Channel layout                           : L R
Sampling rate                            : 48.0 kHz
Frame rate                               : 31.250 FPS (1536 SPF)
Bit depth                                : 16 bits
Compression mode                         : Lossy
Stream size                              : 190 MiB (1%)
Title                                    : UKR @ 192 Kbps | 2.0 | MVO, Ukraina
Language                                 : Ukrainian
Service kind                             : Complete Main
Default                                  : No
Forced                                   : No

Audio #5
ID                                       : 6
Format                                   : AC-3
Format/Info                              : Audio Coding 3
Commercial name                          : Dolby Digital
Codec ID                                 : A_AC3
Duration                                 : 2 h 18 min
Bit rate mode                            : Constant
Bit rate                                 : 640 kb/s
Channel(s)                               : 6 channels
Channel layout                           : L R C LFE Ls Rs
Sampling rate                            : 48.0 kHz
Frame rate                               : 31.250 FPS (1536 SPF)
Bit depth                                : 16 bits
Compression mode                         : Lossy
Stream size                              : 632 MiB (2%)
Title                                    : ENG @ 640 Kbps | 5.1 | Original
Language                                 : English
Service kind                             : Complete Main
Default                                  : No
Forced                                   : No

Audio #6
ID                                       : 7
Format                                   : XLL
Format/Info                              : Digital Theater Systems
Commercial name                          : -HD Master Audio
Codec ID                                 : A_DTS
Duration                                 : 2 h 18 min
Bit rate mode                            : Variable
Bit rate                                 : 4 725 kb/s
Channel(s)                               : 6 channels
Channel layout                           : C L R Ls Rs LFE
Sampling rate                            : 48.0 kHz
Frame rate                               : 93.750 FPS (512 SPF)
Bit depth                                : 24 bits
Compression mode                         : Lossless
Stream size                              : 4.56 GiB (14%)
Title                                    : ENG @ 4725 Kbps | -HD MA 5.1 | Original
Language                                 : English
Default                                  : No
Forced                                   : No

Text #1
ID                                       : 8
Format                                   : PGS
Muxing mode                              : zlib
Codec ID                                 : S_HDMV/PGS
Codec ID/Info                            : Picture based subtitle format used on BDs/HD-DVDs
Duration                                 : 2 h 8 min
Bit rate                                 : 39.6 kb/s
Count of elements                        : 3322
Stream size                              : 36.4 MiB (0%)
Title                                    : Full
Language                                 : English
Default                                  : Yes
Forced                                   : No

Text #2
ID                                       : 9
Format                                   : PGS
Muxing mode                              : zlib
Codec ID                                 : S_HDMV/PGS
Codec ID/Info                            : Picture based subtitle format used on BDs/HD-DVDs
Duration                                 : 2 h 8 min
Bit rate                                 : 37.1 kb/s
Count of elements                        : 3114
Stream size                              : 34.1 MiB (0%)
Title                                    : SDH
Language                                 : English
Default                                  : No
Forced                                   : No
Скріншоти:





Подяки:
п. MAKAPOHHIK за наданий сирий звук до доріжки #2.
п. karvai0, igrik09 за наданий сирий звук до доріжки #3.
п. Sando7 за наданий сирий звук до доріжки #4.
п. robotron005 за синхронізацію доріжок #2 і #3.
п. lenina4040 за синхронізацію доріжки #4.
п. Deluxeman за українізований постер.
За ріп подяка трекеру teamhd

Цитата:
Примітка від lenina4040 до доріжки #4: На проміжку 00:39:22,498-00:39:25,808 відсутнє озвучення, одна фраза (перехід з реклами на трансляцію), тому вставив шматок з доріжки 1+1.

Джерело: &
Особиста оцінка: 10 - без зайвих вагань рекомендую всім!


Золотий реліз (завантажене не впливає на рейтинг)
 Трекер:    Зареєстрований   

Завантажити / скачати фільм українською



відео для новачків



 Зареєстрований:   2019-10-02 11:19
 Розмір:   32.75 GB 
 Оцінка фільму:   9.9/10 (Голосів: 10)
   
GoFY 
Новенький


З нами з: 18.03.19
Востаннє: 20.11.19
Повідомлень: 13

2019-10-01 07:20  
Прекрасний фільм
bot 
робот


З нами з: 30.09.07
Востаннє: 26.05.05
Повідомлень: 22493

2019-10-02 11:19  
Тему перенесено з Анонси релізів до форуму Фільми в HD


antik_2008

Anonymous 







2019-10-02 20:11  
GoFY написано:
Прекрасний фільм

Згоден дуже гарний фільм.

sergej_kriv 
Новенький


З нами з: 13.02.12
Востаннє: 19.11.19
Повідомлень: 11

2019-10-02 20:29  
Два американських судових пристави
відправляються на
ураганом який обрушився,
мешканців клініки, які кидають їх на острові, як у пастці.

Виправте, будь даска, помилки в описі.
Фільм дуже гарний.

Ваш часовий пояс: GMT + 2 Години

Нова тема   Відповісти