Потяг нескінченності / Нескінченний поїзд (Сезон 1) / Infinity Train (Season 1) (2019) 1080p Ukr/Eng | Sub Eng

Нові коментарі

Нова тема   Відповісти
Автор Повідомлення
Anonymous 







2019-09-30 13:50  
Потяг нескінченності / Нескінченний поїзд (Сезон 1) / Infinity Train (Season 1) (2019) 1080p Ukr/Eng | Sub Eng

Потяг нескінченності / Нескінченний поїзд (Сезон 1) / Infinity Train (Season 1) (2019) 1080p Ukr/Eng | Sub Eng


Жанр: анімація, містика, фантастика, пригодницький
Країна: США



Кінокомпанія: Cartoon Network Studios, Warner Bros. Television Distribution
Режисер: Джилл Деніелс
Актори: Ешлі Джонсон, Джеремі Кратчлі, Овен Денніс, Ерні Гадсон.

Сюжет:
Серіал розповідає про пригоди дванадцятирічної дівчинки Тюльпани, яка опинилась на загадковому поїзді з нескінченною кількістю вагонів.


Тривалість: 1 серія: 11:00 (цілком серій: 10 з 10)
Перелік серій
01. Картатий вагон / The Grid Car
02. Пляжний вагон / The Beach Car
03. Вагон коргі / The Corgi Car
04. Кришталевий вагон / The Crystal Car
05. Вагон Кішки / The Cat's Car
06. Незакінчений вагон / The Unfinished Car
07. Хромований вагон / The Chrome Car
08. Вагон із кульками / The Ball Pit Car
09. Вагон минулого / The Past Car
10. Двигун / The Engine
Якість:
Відео:
кодек:
розмір кадру: 1920 х 1080
бітрейт: 11.7 Mb/s

Аудіо # 1:
мова: українська
переклад: двоголосий закадровий
кодек: 2.0
бітрейт: 192 кб/с
про озвучення
Переклад: Aspid
Звук: Angrod
Ролі озвучували: Trina_D & Crupt
Аудіо # 2:
мова: англійська
переклад: оригінал
кодек: 2.0
бітрейт: 224 кб/с

Субтитри:
мова: англійська
тип: програмні (м'які)
формат: *.srt
Info
Video
ID : 1
Format : AVC
Format/Info : Advanced Video Codec
Format profile : [email protected]
Format settings : CABAC / 4 Ref Frames
Format settings, CABAC : Yes
Format settings, Reference : 4 frames
Codec ID : V_MPEG4/ISO/AVC
Duration : 11 min 18 s
Bit rate : 11.7 Mb/s
Width : 1 920 pixels
Height : 1 080 pixels
Display aspect ratio : 16:9
Frame rate mode : Constant
Frame rate : 23.976 (24000/1001) FPS
Color space : YUV
Chroma subsampling : 4:2:0
Bit depth : 8 bits
Scan type : Progressive
Bits/(Pixel*Frame) : 0.236
Stream size : 949 MiB (97%)
Language : English
Default : Yes
Forced : No
Color range : Limited
Color primaries : BT.709
Transfer characteristics : BT.709
Matrix coefficients : BT.709

Audio #1
ID : 2
Format : AC-3
Format/Info : Audio Coding 3
Commercial name : Dolby Digital
Codec ID : A_AC3
Duration : 11 min 18 s
Bit rate mode : Constant
Bit rate : 192 kb/s
Channel(s) : 2 channels
Channel layout : L R
Sampling rate : 48.0 kHz
Frame rate : 31.250 FPS (1536 SPF)
Bit depth : 16 bits
Compression mode : Lossy
Stream size : 15.5 MiB (2%)
Title : MVO - Simpsonsua.tv
Language : Ukrainian
Service kind : Complete Main
Default : Yes
Forced : No

Audio #2
ID : 3
Format : E-AC-3
Format/Info : Enhanced AC-3
Commercial name : Dolby Digital Plus
Codec ID : A_EAC3
Duration : 11 min 18 s
Bit rate mode : Constant
Bit rate : 224 kb/s
Channel(s) : 2 channels
Channel layout : L R
Sampling rate : 48.0 kHz
Frame rate : 31.250 FPS (1536 SPF)
Compression mode : Lossy
Stream size : 18.1 MiB (2%)
Language : English
Service kind : Complete Main
Default : No
Forced : No

Text
ID : 4
Format : UTF-8
Codec ID : S_TEXT/UTF8
Codec ID/Info : UTF-8 Plain Text
Duration : 11 min 11 s
Bit rate : 89 b/s
Count of elements : 265
Stream size : 7.37 KiB (0%)
Language : English
Default : No
Forced : No
Скріншоти







Джерело: & &
Особиста оцінка: 10 - без зайвих вагань рекомендую всім!


Авторський реліз (завантажувати можна без реєстрації)
 Трекер:    Зареєстрований   

Завантажити / скачати мультфільм українською



відео для новачків



 Зареєстрований:   2019-09-30 13:50
 Розмір:   9.84 GB 
 Оцінка мультсеріалу:   10/10 (Голосів: 10)
   
simpsonsua 
VIP


З нами з: 13.03.18
Востаннє: 10.04.21
Повідомлень: 357

2019-10-04 01:18  
І для чого з доріжки вирізати на чиє замовлення озвучено цей мультсеріал? Ми віддали власні кошти на озвучку, і це дуже негарно з вашої сторони.
Anonymous 







2019-10-04 10:55  
simpsonsua написано:
І для чого з доріжки вирізати на чиє замовлення озвучено цей мультсеріал? Ми віддали власні кошти на озвучку, і це дуже негарно з вашої сторони.

Та я ж не проти, але правила гуртом забороняють, будь-яку рекламу.

simpsonsua 
VIP


З нами з: 13.03.18
Востаннє: 10.04.21
Повідомлень: 357

2019-10-04 12:23  
Anonymous
Це не реклама, це інформація про те, завдяки кому було озвучено матеріал українською. Без цього не було би й озвучення мультсеріалу, адже саме сайт підтримав українське. Напишіть, будь ласка, у приват щоб не розводити тут срач, є декілька запитань.

tilda4334 
Відео Гуртом - фільмокрай
Відео Гуртом - фільмокрай


З нами з: 15.08.14
Востаннє: 19.04.21
Повідомлень: 1542

2019-10-04 13:52  
simpsonsua написано:
Це не реклама, це інформація про те, завдяки кому було озвучено матеріал українською. Без цього не було би й озвучення мультсеріалу, адже саме сайт підтримав українське.

Ну тоді виходить, що реклама сайту Космолот у Дніпрофілм, теж не реклама, а інформація про те, завдяки кому було озвучено матеріал українською. Без цього не було б озвучено усі ті серіали.

simpsonsua 
VIP


З нами з: 13.03.18
Востаннє: 10.04.21
Повідомлень: 357

2019-10-04 13:55  
Петров Микола
Ви не плутайте спонсорську рекламу, де рекламується певний продукт (є заклик до певних дій) та інформацію про те хто саме робив озвучення (інформативний меседж). Просто після цієї ситуації ми рівно 0 грн будемо віддавати на озвучення нових мультсеріалів.

tilda4334 
Відео Гуртом - фільмокрай
Відео Гуртом - фільмокрай


З нами з: 15.08.14
Востаннє: 19.04.21
Повідомлень: 1542

2019-10-04 14:04  
Згідно правила:
Цитата:
3.8 Заборонено поміщати у роздачу рекламу в будь-якій формі. Цей пункт поширюється на всі роздачі, створені (оновлені) після 12.01.19.

У вашому випадку звучить реклама вашого сайту, як не крути це реклама, хай вона навіть не "закликає до певних дій".

antik_2008 
Релізер і модератор відео


З нами з: 20.10.08
Востаннє: 19.04.21
Повідомлень: 4870

2019-10-04 14:11  
avi чекати?

Було би добре Happy

LUPEN 
Новенький


З нами з: 07.09.09
Востаннє: 17.03.21
Повідомлень: 1

2019-12-02 23:24  
simpsonsua
Дякую, за озвучку!

simpsonsua 
VIP


З нами з: 13.03.18
Востаннє: 10.04.21
Повідомлень: 357

2019-12-02 23:34  
LUPEN
Приємного перегляду)

Krenz 
Новенький


З нами з: 10.07.14
Востаннє: 28.03.21
Повідомлень: 6

2020-01-07 13:49  
simpsonsua дякую за озвучку!
NeetScrool 
Відео Гуртом - фільмокрай
Відео Гуртом - фільмокрай


З нами з: 10.01.13
Востаннє: 19.04.21
Повідомлень: 3145

2020-01-27 18:13  
tilda4334 написано:
У вашому випадку звучить реклама вашого сайту, як не крути це реклама, хай вона навіть не "закликає до певних дій".

А у фільмах, які озвучені Гуртом є меседж "Озвучено студією Незупиняй продакшин на замовлення Гуртом крапка ком".
Може і вони попадають під то правило?

Lunia 
Новенький


З нами з: 10.11.16
Востаннє: 16.04.21
Повідомлень: 6

2020-10-23 01:27  
Я в захваті від озвучки! Дякую!
Відьмачечок 
Свій


З нами з: 17.05.11
Востаннє: 20.04.21
Повідомлень: 137

2020-11-21 17:19  
Додивилися з донькою мультсеріал, точніше додивлялася донька, бо останні два епізоди я дивився в пів ока. Як на мне чудовий сюжет, один з тих мультів який не вважає дітей за ідіотів і не боїться пояснювати складні філософські та моральні дилеми.
Я б з задоволенням почитав би мальопис за цим сценарієм. Донька водночас в захваті і в зажурі, бо мульт класний, але замало, всього лише 10 епізодів по 11хв.
Якщо порівнювати з тим що я бачив, то найбільше схожий на Ріка та Морті, але без брутальщини та сарказму.
Раджу всім, дітям від 8 років можна спокійно дивитися, майже без підказок.

Ваш часовий пояс: GMT + 2 Години

Нова тема   Відповісти