Чемпіон / Champion / Chaem-pi-eon (2018) 720p Kor | sub Ukr

Нові коментарі

Нова тема   Відповісти
Автор Повідомлення
Chupacabr007 
Свій


З нами з: 07.07.15
Востаннє: 04.12.20
Повідомлень: 94

2019-09-30 11:37  
Чемпіон / Champion / Chaem-pi-eon (2018) 720p Kor | sub Ukr

Чемпіон / Champion / Chaem-pi-eon (2018) 720p Kor | sub Ukr


Жанр: драма, спорт
Країна: Південна Корея



Кінокомпанія: Warner Bros. Pictures, Core Corner
Режисер: Кім Йон-ван
Актори: Ма Дон-сок, Квон Юль, Хан Йері, Чой Сон-хун, Ок Є-рін, Ян Хен-мін

Сюжет:
Армрестлер Марк, американець корейського походження, 10 років тому був чемпіоном, а зараз працює викидайлом в клубі. Слизький промоутер Джін Кі хоче заробити з його допомогою і тим самим вилізти з боргів. Він вмовляє Марка повернутися в Корею, де він вперше зустрічає молоду сестру з двома дітьми, яка теж заборгувала бандитам. Щоб відганяти колекторів, Марк вирішує пожити у новознайденої родички, і як незабаром з'ясується, сім'я - це не так вже й погано, особливо коли справа стосується підтримки на спортивних змаганнях.


Тривалість: 01:48:07
Якість:
Відео:
кодек:
розмір кадру: 1280 х 536
бітрейт: 5273 кб/с

Аудіо:
мова: корейська
переклад: оригінал
кодек: 5.1
бітрейт: 640 кб/с

Субтитри:
мова: українська
тип: програмні (м'які)
формат: *.srt
переклад: [SubAutumn]
Скріншоти





Info
General
Complete name : D:\SubAutumn\Films\Champion\Champion (2018) [Kor Sub.Ukr] 720p [Hurtom].
Format :
Format version : Version 4 / Version 2
File size : 4.56 GiB
Duration : 1h 48mn
Overall bit rate : 6 033 Kbps
Movie name : Champion (2018) [Kor Sub.Ukr] 720p [Hurtom]
Encoded date : UTC 2019-09-30 08:00:57
Writing application : v6.5.0 ('Isn't she lovely') built on Oct 20 2013 12:50:05
Writing library : libebml v1.3.0 + v1.4.1

Video
ID : 1
Format : AVC
Format/Info : Advanced Video Codec
Format profile : [email protected]
Format settings, CABAC : Yes
Format settings, ReFrames : 9 frames
Codec ID : V_MPEG4/ISO/AVC
Duration : 1h 48mn
Bit rate : 5 273 Kbps
Width : 1 280 pixels
Height : 536 pixels
Display aspect ratio : 2.40:1
Frame rate mode : Constant
Frame rate : 23.976 fps
Color space : YUV
Chroma subsampling : 4:2:0
Bit depth : 8 bits
Scan type : Progressive
Bits/(Pixel*Frame) : 0.321
Stream size : 3.98 GiB (87%)
Title : 720p
Writing library : core 157 r2935 545de2f
Encoding settings : cabac=1 / ref=9 / deblock=1:-3:-3 / analyse=0x3:0x133 / me=umh / subme=11 / psy=1 / psy_rd=1.00:0.15 / mixed_ref=1 / me_range=32 / chroma_me=1 / trellis=2 / 8x8dct=1 / cqm=0 / deadzone=21,11 / fast_pskip=0 / chroma_qp_offset=-3 / threads=12 / lookahead_threads=3 / sliced_threads=0 / nr=0 / decimate=1 / interlaced=0 / bluray_compat=0 / constrained_intra=0 / bframes=12 / b_pyramid=2 / b_adapt=2 / b_bias=0 / direct=3 / weightb=1 / open_gop=0 / weightp=2 / keyint=300 / keyint_min=24 / scenecut=40 / intra_refresh=0 / rc_lookahead=60 / rc=crf / mbtree=1 / crf=17.2 / qcomp=0.60 / qpmin=0 / qpmax=69 / qpstep=4 / ip_ratio=1.40 / aq=3:1.00
Language : Korean
Default : Yes
Forced : No

Audio
ID : 2
Format : AC-3
Format/Info : Audio Coding 3
Mode extension : CM (complete main)
Format settings, Endianness : Big
Codec ID : A_AC3
Duration : 1h 48mn
Bit rate mode : Constant
Bit rate : 640 Kbps
Channel(s) : 6 channels
Channel positions : Front: L C R, Side: L R, LFE
Sampling rate : 48.0 KHz
Compression mode : Lossy
Stream size : 495 MiB (11%)
Title : Original
Language : Korean
Default : Yes
Forced : No

Text
ID : 3
Format : UTF-8
Codec ID : S_TEXT/UTF8
Codec ID/Info : UTF-8 Plain Text
Title : Champion (2018) [Kor Sub.Ukr] 720p [Hurtom]
Language : Ukrainian
Default : Yes
Forced : No
Джерело:
Особиста оцінка: 10 - без зайвих вагань рекомендую всім!


Золотий реліз (завантажене не впливає на рейтинг)
 Трекер:    Зареєстрований   

Завантажити / скачати фільм українською



відео для новачків



 Зареєстрований:   2019-09-30 11:37
 Розмір:   4.56 GB 
 Оцінка фільму:   10/10 (Голосів: 4)
   
Ваш часовий пояс: GMT + 2 Години

Нова тема   Відповісти