Шестеро весь світ обійдуть / Sechse kommen durch die ganze Welt (2014) 1080p

Нові коментарі

Нова тема   Відповісти
Автор Повідомлення
sergiyko.5 
Забанено
Забанено


З нами з: 25.02.16
Востаннє: 29.10.20
Повідомлень: 3650

2019-09-29 21:45  
Шестеро весь світ обійдуть / Sechse kommen durch die ganze Welt (2014) 1080p

Шестеро весь світ обійдуть / Sechse kommen durch die ganze Welt (2014) 1080p

Жанр: сімейний, казка
Країна: Німеччина
Кінокомпанія: Askania Media Filmproduktion GmbH, ProSaar Medienproduktion
Режисер: Уве Янсон
Актори:Себастіан Беццель, Рафаель Гарайзен, Лаура Марія Хайд, Тоніо Аранго, Максиміліан Герлінгер, Еміль Райнке, Ніколь Мерседес Мюллер, Антон Рубцов, Алісса Вільмса

Сюжет:
Музикант Яспер і принцеса Елла люблять один одного, але злий і примхливий король не хоче видавати свою дочку заміж за бідного музиканта. Обманом він розлучає закоханих, і лише п'ятеро незвичайних друзів зможуть допомогти Ясперу повернути його кохану.




Тривалість: 00:58:57
Якість:

Відео: кодек: розмір кадру: 1920 х 1080 бітрейт: 4800 кб/с
Аудіо: мова: українська переклад: професійний дубльований кодек: 2.0 бітрейт: 256 кб/с
Озвучення:
Про файл:
General
Unique ID : 198127905879597158635950223372094886036 (0x950E0BF2E855CA862A00C79A3FC95094)
Complete name : D:\Documents\Torrents\FILM\Sechse kommen durch die ganze Welt.2014..
Format :
Format version : Version 4
File size : 2.09 GiB
Duration : 58 min 57 s
Overall bit rate : 5 077 kb/s
Movie name : rip by sergiyko
Encoded date : UTC 2019-09-29 19:37:31
Writing application : v36.0.0 ('Is That Jazz?') 64-bit
Writing library : libebml v1.3.9 + v1.5.2

Video
ID : 1
Format : AVC
Format/Info : Advanced Video Codec
Format profile : [email protected]
Format settings : CABAC / 6 Ref Frames
Format settings, CABAC : Yes
Format settings, Reference : 6 frames
Codec ID : V_MPEG4/ISO/AVC
Duration : 58 min 57 s
Bit rate : 4 819 kb/s
Width : 1 920 pixels
Height : 1 080 pixels
Display aspect ratio : 16:9
Frame rate mode : Constant
Frame rate : 25.000 FPS
Color space : YUV
Chroma subsampling : 4:2:0
Bit depth : 8 bits
Scan type : Progressive
Bits/(Pixel*Frame) : 0.093
Stream size : 1.98 GiB (95%)
Title : Sechse kommen durch die ganze Welt 2014
Writing library : core 142 r2491 24e4fed
Encoding settings : cabac=1 / ref=6 / deblock=1:0:0 / analyse=0x3:0x113 / me=hex / subme=7 / psy=1 / psy_rd=1.00:0.00 / mixed_ref=1 / me_range=16 / chroma_me=1 / trellis=1 / 8x8dct=1 / cqm=0 / deadzone=21,11 / fast_pskip=1 / chroma_qp_offset=-2 / threads=12 / lookahead_threads=2 / sliced_threads=0 / nr=0 / decimate=1 / interlaced=0 / bluray_compat=0 / constrained_intra=0 / bframes=3 / b_pyramid=2 / b_adapt=1 / b_bias=0 / direct=1 / weightb=1 / open_gop=0 / weightp=2 / keyint=100 / keyint_min=10 / scenecut=40 / intra_refresh=0 / rc_lookahead=40 / rc=crf / mbtree=1 / crf=22.0 / qcomp=0.60 / qpmin=0 / qpmax=69 / qpstep=4 / vbv_maxrate=10000 / vbv_bufsize=20000 / crf_max=0.0 / nal_hrd=none / filler=0 / ip_ratio=1.41 / aq=1:1.00
Language : German
Default : Yes
Forced : No

Audio
ID : 2
Format : LC
Format/Info : Advanced Audio Codec Low Complexity
Codec ID : A_AAC-2
Duration : 58 min 57 s
Bit rate : 256 kb/s
Channel(s) : 2 channels
Channel layout : L R
Sampling rate : 44.1 kHz
Frame rate : 43.066 FPS (1024 SPF)
Compression mode : Lossy
Delay relative to video : -80 ms
Stream size : 108 MiB (5%)
Title : DUB | ТЕТ
Language : Ukrainian
Default : Yes
Forced : No
Скріншоти:


 Трекер:    Зареєстрований   

Завантажити / скачати фільм українською



відео для новачків



 Зареєстрований:   2019-09-29 21:54
 Розмір:   2.09 GB 
 Оцінка фільму:   9.9/10 (Голосів: 7)
   
Konfucius 
Управління
Управління


З нами з: 30.09.07
Востаннє: 24.01.21
Повідомлень: 5215

2020-06-11 17:46  
Прошу додати оригінальну доріжку.
Ваш часовий пояс: GMT + 2 Години

Нова тема   Відповісти