Стеження / Засідка / Stakeout (1987) HDTV 1080i Ukr/Eng | Sub Ukr/Eng

Нові коментарі

Нова тема   Відповісти
Автор Повідомлення
MakRA 
VIP


З нами з: 10.11.18
Востаннє: 28.02.21
Повідомлень: 1186

2019-09-29 21:27  
Стеження / Засідка / Stakeout (1987) HDTV 1080i Ukr/Eng | Sub Ukr/Eng

Стеження / Засідка / Stakeout (1987) HDTV 1080i Ukr/Eng | Sub Ukr/Eng


Жанр: екшн, комедія, кримінальний
Країна: США



Кінокомпанія: Touchstone Pictures, Silver Screen Partners II, Cinderella
Режисер: Джон Бедем [John Badham]
Актори: Річард Дрейфус [Richard Dreyfuss], Еміліо Естевес [Emilio Estevez], Медлін Стоу [Madeleine Stowe], Ейдан Куїнн [Aidan Quinn], Ден Лорія [Dan Lauria], Форест Вітакер [Forest Whitaker], Іен Трейсі [Ian Tracey], Ерл Біллінгс [Earl Billings], Джексон Девіс [Jackson Davies], Дж.Дж. Макаро [J.J. Makaro]

Сюжет:
З федеральної в'язниці втікає вбивця - Річард Монтгомері. Поліція, намагаючись перекрити всі шляхи відходу, встановлює спостереження за квартирою Марії, дівчини втікача. Справа, яка спочатку здавалася простою, приймає несподіваний оберт, коли Кріс, один з детективів, які ведуть спостереження за дівчиною, закохується в об'єкт спостереження, і намагається приховати від Марії свою професію .


Тривалість: 01:57:16
Якість: HDTV 1080i
Відео:
кодек:
розмір кадру: 1920 х 1080
бітрейт: 17,6 Мб/с

Аудіо # 1:
мова: українська
переклад: двоголосий закадровий
кодек: 2.0
бітрейт: 192 кб/с

Аудіо # 2:
мова: англійська
переклад: оригінал
кодек: 5.1
бітрейт: 384 кб/с

Субтитри # 1: (Full)
мова: українська
тип: програмні (м'які)
формат: *.srt

Субтитри # 2: (Full)
мова: англійська
тип: програмні (м'які)
формат: *.srt

Збережено оригінальні іменовані розділи, як на DVD.
Info
General
Unique ID : 7316319568820533125162668005547200672 (0x5811267A5AAAC0230590D59E1EA50A0)
Complete name : F:\Триллери, кримінал\Stakeout. Collection\Stakeout (1987) HDTV 1080i UkrEng Sub UkrEng [Hurtom].
Format :
Format version : Version 4
File size : 14.9 GiB
Duration : 1 h 57 min
Overall bit rate mode : Variable
Overall bit rate : 18.1 Mb/s
Movie name : Стеження / Засідка / Stakeout (1987) HDTV 1080i Ukr/Eng | Sub Ukr/Eng [Hurtom]
Encoded date : UTC 2020-03-08 20:25:16
Writing application : v25.0.0 ('Prog Noir') 64-bit
Writing library : libebml v1.3.6 + v1.4.9
Cover : Yes
Attachments : cover.jpg

Video
ID : 1
Format : MPEG Video
Format version : Version 2
Format profile : [email protected]
Format settings : CustomMatrix / BVOP
Format settings, BVOP : Yes
Format settings, Matrix : Custom
Format settings, GOP : M=3, N=15
Format settings, picture struc : Frame
Codec ID : V_MPEG2
Codec ID/Info : MPEG 1 or 2 Video
Duration : 1 h 57 min
Bit rate mode : Variable
Bit rate : 17.6 Mb/s
Maximum bit rate : 80.0 Mb/s
Width : 1 920 pixels
Height : 1 080 pixels
Display aspect ratio : 16:9
Frame rate mode : Constant
Frame rate : 29.970 (30000/1001) FPS
Color space : YUV
Chroma subsampling : 4:2:0
Bit depth : 8 bits
Scan type : Interlaced
Scan order : Top Field First
Compression mode : Lossy
Bits/(Pixel*Frame) : 0.282
Time code of first frame : 00:00:00;00
Time code source : Group of pictures header
GOP, Open/Closed : Open
GOP, Open/Closed of first fram : Closed
Stream size : 14.4 GiB (97%)
Title : Stakeout (1987) HDTV 1080i Ukr/Eng | Sub Ukr/Eng [Hurtom]
Language : Ukrainian
Default : Yes
Forced : Yes

Audio #1
ID : 2
Format : AC-3
Format/Info : Audio Coding 3
Commercial name : Dolby Digital
Codec ID : A_AC3
Duration : 1 h 57 min
Bit rate mode : Constant
Bit rate : 192 kb/s
Channel(s) : 2 channels
Channel layout : L R
Sampling rate : 44.1 kHz
Frame rate : 28.711 FPS (1536 SPF)
Compression mode : Lossy
Stream size : 161 MiB (1%)
Title : DVO [1+1] 2.0
Language : Ukrainian
Service kind : Complete Main
Default : Yes
Forced : Yes

Audio #2
ID : 3
Format : AC-3
Format/Info : Audio Coding 3
Commercial name : Dolby Digital
Codec ID : A_AC3
Duration : 1 h 57 min
Bit rate mode : Constant
Bit rate : 384 kb/s
Channel(s) : 6 channels
Channel layout : L R C LFE Ls Rs
Sampling rate : 48.0 kHz
Frame rate : 31.250 FPS (1536 SPF)
Compression mode : Lossy
Stream size : 322 MiB (2%)
Title : Original 5.1
Language : English
Service kind : Complete Main
Default : No
Forced : No

Text #1
ID : 4
Format : UTF-8
Codec ID : S_TEXT/UTF8
Codec ID/Info : UTF-8 Plain Text
Duration : 1 h 54 min
Bit rate : 69 b/s
Count of elements : 1258
Stream size : 58.4 KiB (0%)
Title : Ukr (Full)
Language : Ukrainian
Default : No
Forced : No

Text #2
ID : 5
Format : UTF-8
Codec ID : S_TEXT/UTF8
Codec ID/Info : UTF-8 Plain Text
Duration : 1 h 55 min
Bit rate : 55 b/s
Count of elements : 1139
Stream size : 47.5 KiB (0%)
Title : Eng (Full)
Language : English
Default : No
Forced : No

Menu
00:00:00.000 : en:Opening Titles/Prison Break
00:09:23.667 : en:Fish Fight
00:15:21.167 : en:Reassigned
00:31:54.167 : en:Illegal Procedure
00:43:53.035 : en:A Nice Guy
00:54:57.569 : en:Blowing His Cover
01:05:44.702 : en:Bill
01:22:49.070 : en:"It's Never Over 'Til It's Over"
01:34:07.604 : en:Parole Violation
01:47:43.572 : en:Always in Trouble/End Credits
01:57:13.406 : en:Chapter 11
Скріншоти
Джерело: &
Висловлюю подяку п. ilu за звук
Також величезна подяка п. MutuLI та п. kinoreliz за надані українські субтитри.
Особиста оцінка: 9 - давно не бачив настільки якісне кіно


Срібний реліз (на рейтинг впливає 50% завантаженого)
 Трекер:    Зареєстрований   

Завантажити / скачати фільм українською



відео для новачків



 Зареєстрований:   2020-03-08 22:47
 Розмір:   14.85 GB 
 Оцінка фільму:   9.6/10 (Голосів: 10)
   
Інші релізи
   Стеження / Засідка / Stakeout (1987) AVC Ukr/Eng | Sub Ukr/Eng drop_plz  5 / 0   2.51 GB   2020-07-02 09:01 
   Стеження / Засідка / Stakeout (1987) Ukr/Eng ilu  2 / 0   2.18 GB   2013-09-08 13:43 
MutuLI 
Відео Гуртом - фільмокрай
Відео Гуртом - фільмокрай


З нами з: 08.03.09
Востаннє: 28.02.21
Повідомлень: 2100

2020-03-08 16:18  
українські субтитри від пана kinoreliz
Stakeout.(1987).01h57m15s.23.976fps.[Hurtom-kinoreliz].srt
також на subscene.com та opensubtitles.org

MakRA 
VIP


З нами з: 10.11.18
Востаннє: 28.02.21
Повідомлень: 1186

2020-03-08 22:49  
Реліз оновлено 08.03.2020
Додано українські субтитри та іменовані розділи

PuMa.ua 
VIP


З нами з: 29.08.08
Востаннє: 28.02.21
Повідомлень: 684

2020-03-09 00:02  
Stakeout 1987 1080p DD+ 5.1 -AM

може варто більш глобально оновити?

ivan73vl 
Новенький


З нами з: 10.08.17
Востаннє: 21.02.21
Повідомлень: 1

2020-03-28 22:18  
огонь!
Ваш часовий пояс: GMT + 2 Години

Нова тема   Відповісти