Сікаріо 2 / Sicario: Day of the Soldado (2018) UHD Remux 4K 2160p HDR H.265 Ukr/Eng | Sub Ukr/Eng

Нові коментарі

Нова тема   Відповісти
Автор Повідомлення
Bandit 01 
Частий відвідувач


З нами з: 22.07.11
Востаннє: 29.05.20
Повідомлень: 40

2019-09-29 19:08  
Сікаріо 2 / Sicario: Day of the Soldado (2018) UHD Remux 4K 2160p HDR H.265 Ukr/Eng | Sub Ukr/Eng

Сікаріо 2 / Sicario: Day of the Soldado (2018) UHD Remux 4K 2160p HDR H.265 Ukr/Eng | Sub Ukr/Eng
Альтернативний постер:

Сікаріо 2 / Sicario: Day of the Soldado (2018) UHD Remux 4K 2160p HDR H.265 Ukr/Eng | Sub Ukr/Eng


Жанр: бойовик, кримінальний, драма, трилер
Країна: США



Кінокомпанія: Black Label Media, Lionsgate, Rai Cinema
Режисер: Стефано Солліма / Stefano Sollima
Актори: Бенісіо дель Торо / Benicio Del Toro, Джош Бролін / Josh Brolin, Ізабела Монер / Isabela Moner, Джеффрі Донован / Jeffrey Donovan, Кетрін Кінер / Catherine Keener, Мануель Рульфо / Manuel Rulfo, Метью Модайн / Matthew Modine, Шеф Віґгем / Shea Whigham, Елайджа Родріґес / Elijah Rodriguez, Говард Ферґ'юсон мол. / Howard Ferguson Jr. та інші.

Сюжет:
Стрічка є продовженням фільму «Сікаріо» (2015) і розповідає про боротьбу з мексиканськими наркокартелями. Які все своє існування ведуть нещадну боротьбу з американськими спецслужбами. Американський уряд навіть вніс наркокартелі до списків терористичних організацій. У ході однієї спецоперації федеральний агент Метт Ґрейвер змушений попросити допомоги у свого колишнього напарника Алехандро Ґілліка. Незважаючи на багато розбіжностей, вони повинні попрацювати ще трохи разом. Але операція пройшла трохи не за планом…


Тривалість: 02:02:24
Якість: UHD Remux 4K 2160p
Відео:
кодек: H.265
розмір кадру: 3840x2160
бітрейт: 50,1 Мб/с
бітова глибина: 10 біт
кольоровий простір: BT.2020 (HDR)
Увага! Перед завантаженням переконайтесь, що ваш пристрій відтворення (та/або ПЗ) підтримує H.265 (HEVC)

Аудіо # 1:
мова: українська
переклад: багатоголосий закадровий
кодек: 2.0 (стерео)
бітрейт: 192 кб/с

Аудіо # 2:
мова: англійська
переклад: оригінал
кодек: -HD MA 7.1
бітрейт: 5031 кб/с

Аудіо # 3:
мова: англійська
переклад: оригінал
кодек: 5.1
бітрейт: 640 кб/с

Субтитри # 1 (forced):
мова: українська
тип: програмні (м'які)
формат: *.srt

Субтитри # 2-3 (full, SDH):
мова: англійська
тип: програмні (м'які)
формат: *.srt
Info
Код:
General
Complete name               : Sicario.Day of the Soldado (2018) UHD Remux 4K 2160p [UKR_ENG] [Hurtom].
Format                      :
Format version              : Version 4
File size                   : 46.2 GiB
Duration                    : 2 h 8 min
Overall bit rate mode       : Variable
Overall bit rate            : 51.6 Mb/s
Movie name                  : Sicario: Day of the Soldado (2018) TeamHD-селезень
Encoded date                : UTC 2019-09-29 12:21:44
Writing application         : v37.0.0 ('Leave It') 64-bit
Writing library             : libebml v1.3.9 + v1.5.2
Cover                       : Yes
Attachments                 : cover.jpg

Video
ID                          : 1
Format                      : HEVC
Format/Info                 : High Efficiency Video Coding
Format profile              : Main [email protected]@High
HDR format                  : SMPTE ST 2086, HDR10 compatible
Codec ID                    : V_MPEGH/ISO/HEVC
Duration                    : 2 h 2 min
Bit rate                    : 50.1 Mb/s
Width                       : 3 840 pixels
Height                      : 2 160 pixels
Display aspect ratio        : 16:9
Frame rate mode             : Constant
Frame rate                  : 23.976 (24000/1001) FPS
Color space                 : YUV
Chroma subsampling          : 4:2:0 (Type 2)
Bit depth                   : 10 bits
Bits/(Pixel*Frame)          : 0.252
Stream size                 : 42.8 GiB (93%)
Language                    : English
Default                     : Yes
Forced                      : No
Color range                 : Limited
Color primaries             : BT.2020
Transfer characteristics    : PQ
Matrix coefficients         : BT.2020 non-constant
Mastering display color pri : Display P3
Mastering display luminance : min: 0.0001 cd/m2, max: 1000 cd/m2
Maximum Content Light Level : 8325 cd/m2
Maximum Frame-Average Light : 775 cd/m2

Audio #1
ID                          : 2
Format                      : AC-3
Format/Info                 : Audio Coding 3
Commercial name             : Dolby Digital
Codec ID                    : A_AC3
Duration                    : 2 h 8 min
Bit rate mode               : Constant
Bit rate                    : 192 kb/s
Channel(s)                  : 2 channels
Channel layout              : L R
Sampling rate               : 48.0 kHz
Frame rate                  : 31.250 FPS (1536 SPF)
Bit depth                   : 16 bits
Compression mode            : Lossy
Stream size                 : 176 MiB (0%)
Title                       : MVO [ICTV], 2.0 [stereo] 192 Kbps
Language                    : Ukrainian
Service kind                : Complete Main
Default                     : Yes
Forced                      : Yes

Audio #2
ID                          : 3
Format                      : MLP FBA 16-ch
Format/Info                 : Meridian Lossless Packing FBA with 16-channel presentation
Commercial name             : Dolby TrueHD with Dolby Atmos
Codec ID                    : A_TRUEHD
Duration                    : 2 h 2 min
Bit rate mode               : Variable
Bit rate                    : 2 990 kb/s
Maximum bit rate            : 5 031 kb/s
Channel(s)                  : 8 channels
Channel layout              : L R C LFE Ls Rs Lb Rb
Sampling rate               : 48.0 kHz
Frame rate                  : 1 200.000 FPS (40 SPF)
Compression mode            : Lossless
Stream size                 : 2.56 GiB (6%)
Title                       : Original
Language                    : English
Default                     : No
Forced                      : No
Number of dynamic objects   : 11
Bed channel count           : 1 channel
Bed channel configuration   : LFE

Audio #3
ID                          : 4
Format                      : AC-3
Format/Info                 : Audio Coding 3
Commercial name             : Dolby Digital
Codec ID                    : A_AC3
Duration                    : 2 h 2 min
Bit rate mode               : Constant
Bit rate                    : 640 kb/s
Channel(s)                  : 6 channels
Channel layout              : L R C LFE Ls Rs
Sampling rate               : 48.0 kHz
Frame rate                  : 31.250 FPS (1536 SPF)
Bit depth                   : 16 bits
Compression mode            : Lossy
Stream size                 : 560 MiB (1%)
Language                    : English
Service kind                : Complete Main
Default                     : No
Forced                      : No

Text #1
ID                          : 5
Format                      : UTF-8
Codec ID                    : S_TEXT/UTF8
Codec ID/Info               : UTF-8 Plain Text
Duration                    : 1 h 52 min
Bit rate                    : 5 b/s
Count of elements           : 152
Stream size                 : 4.79 KiB (0%)
Title                       : Forced
Language                    : Ukrainian
Default                     : Yes
Forced                      : Yes

Text #2
ID                          : 6
Format                      : UTF-8
Codec ID                    : S_TEXT/UTF8
Codec ID/Info               : UTF-8 Plain Text
Duration                    : 1 h 52 min
Bit rate                    : 36 b/s
Count of elements           : 840
Stream size                 : 30.1 KiB (0%)
Title                       : Full
Language                    : English
Default                     : No
Forced                      : No

Text #3
ID                          : 7
Format                      : UTF-8
Codec ID                    : S_TEXT/UTF8
Codec ID/Info               : UTF-8 Plain Text
Duration                    : 2 h 1 min
Bit rate                    : 40 b/s
Count of elements           : 1062
Stream size                 : 36.0 KiB (0%)
Title                       : SDH
Language                    : English
Default                     : No
Forced                      : No

Menu
00:00:00.000                : en:Chapter 01
00:06:38.189                : en:Chapter 02
00:14:45.593                : en:Chapter 03
00:18:48.502                : en:Chapter 04
00:27:08.335                : en:Chapter 05
00:34:08.964                : en:Chapter 06
00:42:28.671                : en:Chapter 07
00:51:10.442                : en:Chapter 08
01:00:58.071                : en:Chapter 09
01:09:20.114                : en:Chapter 10
01:14:26.796                : en:Chapter 11
01:23:24.958                : en:Chapter 12
01:28:41.358                : en:Chapter 13
01:35:38.900                : en:Chapter 14
01:41:44.348                : en:Chapter 15
01:46:15.494                : en:Chapter 16
Скріншоти



Джерело: |
Особиста оцінка: 10 - без зайвих вагань рекомендую всім. Один з улюблених фільмів.


Золотий реліз (завантажене не впливає на рейтинг)
 Трекер:    Зареєстрований   

Завантажити / скачати фільм українською



відео для новачків



 Зареєстрований:   2019-09-29 19:08
 Розмір:   46.17 GB 
 Оцінка фільму:   9.4/10 (Голосів: 8)
   
Ваш часовий пояс: GMT + 2 Години

Нова тема   Відповісти