Човен / The Boat (2018) 1080p Eng | sub Ukr

Нові коментарі

Нова тема   Відповісти
Автор Повідомлення
Chupacabr007 
Свій


З нами з: 07.07.15
Востаннє: 04.12.20
Повідомлень: 94

2019-09-29 15:52  
Човен / The Boat (2018) 1080p Eng | sub Ukr

Човен / The Boat (2018) 1080p Eng | sub Ukr


Жанр: детектив, трилер
Країна: Велика Британія, Мальта



Кінокомпанія: Latina Pictures, Hurricane Films
Режисер: Вінстон Ацопарді
Актори: Джо Ацопарді

Сюжет:
Одинокий рибалка випадково знаходить в тумані покинуту яхту і опиняється замкнений на ній. Намагаючись вибратися, він розуміє, що на яхті перебуває ще хтось або щось, і воно має на нього свої плани.


Тривалість: 01:28:54
Якість:
Відео:
кодек:
розмір кадру: 1910 х 798
бітрейт: 4446 кб/с

Аудіо:
мова: англійська
переклад: оригінал
кодек: 5.1
бітрейт: 384 кб/с

Субтитри:
мова: українська
тип: програмні (м'які)
формат: *.srt
переклад: [SubAutumn]
Скріншоти




Info
General
Complete name : D:\SubAutumn\Films\The Boat\The Boat (2018) [Eng Sub.Ukr] 1080p [Hurtom].
Format :
Format version : Version 4 / Version 2
File size : 3.06 GiB
Duration : 1h 28mn
Overall bit rate : 4 929 Kbps
Movie name : The Boat (2018) [Eng Sub.Ukr] 1080p [Hurtom]
Encoded date : UTC 2019-09-29 13:00:43
Writing application : v6.5.0 ('Isn't she lovely') built on Oct 20 2013 12:50:05
Writing library : libebml v1.3.0 + v1.4.1
Attachements : small_cover.jpg / small_cover_land.jpg / cover.jpg / cover_land.jpg

Video
ID : 1
Format : AVC
Format/Info : Advanced Video Codec
Format profile : [email protected]
Format settings, CABAC : Yes
Format settings, ReFrames : 5 frames
Codec ID : V_MPEG4/ISO/AVC
Duration : 1h 28mn
Bit rate : 4 446 Kbps
Width : 1 910 pixels
Height : 798 pixels
Display aspect ratio : 2.40:1
Frame rate mode : Constant
Frame rate : 24.000 fps
Color space : YUV
Chroma subsampling : 4:2:0
Bit depth : 8 bits
Scan type : Progressive
Bits/(Pixel*Frame) : 0.122
Stream size : 2.76 GiB (90%)
Title : The.Boat.2018.1080p..DD5.1.H264-FGT
Language : English
Default : Yes
Forced : No
Color range : Limited
Color primaries : BT.709
Transfer characteristics : BT.709
Matrix coefficients : BT.709

Audio
ID : 2
Format : AC-3
Format/Info : Audio Coding 3
Mode extension : CM (complete main)
Format settings, Endianness : Big
Codec ID : A_AC3
Duration : 1h 28mn
Bit rate mode : Constant
Bit rate : 384 Kbps
Channel(s) : 6 channels
Channel positions : Front: L C R, Side: L R, LFE
Sampling rate : 48.0 KHz
Compression mode : Lossy
Stream size : 244 MiB (8%)
Title : Original
Language : English
Default : Yes
Forced : No

Text
ID : 3
Format : UTF-8
Codec ID : S_TEXT/UTF8
Codec ID/Info : UTF-8 Plain Text
Title : The Boat (2018) [Eng Sub.Ukr] 1080p [Hurtom]
Language : Ukrainian
Default : Yes
Forced : No
Джерело:


Золотий реліз (завантажене не впливає на рейтинг)
 Трекер:    Зареєстрований   

Завантажити / скачати фільм українською



відео для новачків



 Зареєстрований:   2019-09-29 15:52
 Розмір:   3.06 GB 
 Оцінка фільму:   9.2/10 (Голосів: 5)
   
Ваш часовий пояс: GMT + 2 Години

Нова тема   Відповісти