На лінії вогню / In the Line of Fire (1993) 720p Ukr/Eng | Sub Eng

Нові коментарі

Нова тема   Відповісти
Останній раз роздавалося nikolai47 (2020-05-16)
Автор Повідомлення
Anonymous 







2019-09-28 22:43  
На лінії вогню / In the Line of Fire (1993) 720p Ukr/Eng | Sub Eng

На лінії вогню / In the Line of Fire (1993) 720p Ukr/Eng | Sub Eng


Жанр: трилер, драма
Країна: США
Кінокомпанія: Columbia Pictures Corporation
Режисер: Вольфганг Петерсен
Актори: Клінт Іствуд, Джон Малковіч, Рене Руссо, Ділан МакДермот, Гері Коул, Фред Долтон Томпсон, Джон Махоні, Грегорі Алан Вільямс, Джим Керлі, Селлі Х'юз

Сюжет:
У той нещасливий день, коли в Далласі був убитий президент Кенеді, Френк Хорріган знаходився серед охорони. Спогади про невиконану місію вже багато років не дають йому спати спокійно.
Через 30 років маніяк-психопат, погрожуючи убити президента, вибирає Френка мішенню для переслідування. І в цій небезпечній грі лише сила волі вирішить, хто залишиться в живих.

Тривалість: 02:08:36
Якість:

Відео:
кодек:
розмір кадру: 1280 x 534
бітрейт: 5688 кб/с

Аудіо # 1:
мова: українська
переклад: багатоголосий закадровий
кодек: AC-3 5.1
бітрейт: 384 кб/с

Аудіо # 2:
мова: англійська
переклад: оригінал
кодек: AC-3 5.1
бітрейт: 640 кб/с

Субтитри # 1: (Full)
мова: англійська
тип: програмні (м'які)
формат: *.srt


Info
Код:
General
Unique ID                                : 306109099311933414262294967426033477585 (0xE64A77D2DFA4A9F96D267F2D5D2167D1)
Complete name                            : In the Line of Fire (1993) 720p [UKR_ENG] [Hurtom].
Format                                   :
Format version                           : Version 4
File size                                : 6.03 GiB
Duration                                 : 2 h 8 min
Overall bit rate                         : 6 708 kb/s
Movie name                               : На лінії вогню / In the Line of Fire (1993)
Encoded date                             : UTC 2019-09-28 14:02:32
Writing application                      : v20.0.0 ('I Am The Sun') 64-bit
Writing library                          : libebml v1.3.5 + v1.4.8
Cover                                    : Yes
Attachments                              : Cover.jpg

Video
ID                                       : 1
Format                                   : AVC
Format/Info                              : Advanced Video Codec
Format profile                           : [email protected]
Format settings                          : CABAC / 11 Ref Frames
Format settings, CABAC                   : Yes
Format settings, Reference frames        : 11 frames
Codec ID                                 : V_MPEG4/ISO/AVC
Duration                                 : 2 h 8 min
Bit rate                                 : 5 688 kb/s
Width                                    : 1 280 pixels
Height                                   : 534 pixels
Display aspect ratio                     : 2.40:1
Frame rate mode                          : Constant
Frame rate                               : 23.976 (24000/1001) FPS
Color space                              : YUV
Chroma subsampling                       : 4:2:0
Bit depth                                : 8 bits
Scan type                                : Progressive
Bits/(Pixel*Frame)                       : 0.347
Stream size                              : 5.10 GiB (85%)
Title                                    : На лінії вогню / In the Line of Fire (1993)
Writing library                          : core 148 r2721 72d53ab
Encoding settings                        : cabac=1 / ref=11 / deblock=1:-3:-3 / analyse=0x3:0x113 / me=umh / subme=11 / psy=1 / psy_rd=1.00:0.00 / mixed_ref=1 / me_range=32 / chroma_me=1 / trellis=2 / 8x8dct=1 / cqm=0 / deadzone=21,11 / fast_pskip=0 / chroma_qp_offset=-2 / threads=12 / lookahead_threads=1 / sliced_threads=0 / nr=0 / decimate=1 / interlaced=0 / bluray_compat=0 / constrained_intra=0 / bframes=6 / b_pyramid=2 / b_adapt=2 / b_bias=0 / direct=3 / weightb=1 / open_gop=0 / weightp=2 / keyint=240 / keyint_min=23 / scenecut=40 / intra_refresh=0 / rc=2pass / mbtree=0 / bitrate=5688 / ratetol=2.0 / qcomp=0.60 / qpmin=0 / qpmax=69 / qpstep=4 / cplxblur=20.0 / qblur=0.5 / ip_ratio=1.40 / pb_ratio=1.30 / aq=2:0.80
Language                                 : English
Default                                  : Yes
Forced                                   : No

Audio #1
ID                                       : 2
Format                                   : AC-3
Format/Info                              : Audio Coding 3
Commercial name                          : Dolby Digital
Codec ID                                 : A_AC3
Duration                                 : 2 h 8 min
Bit rate mode                            : Constant
Bit rate                                 : 384 kb/s
Channel(s)                               : 6 channels
Channel layout                           : L R C LFE Ls Rs
Sampling rate                            : 48.0 kHz
Frame rate                               : 31.250 FPS (1536 SPF)
Bit depth                                : 16 bits
Compression mode                         : Lossy
Stream size                              : 353 MiB (6%)
Title                                    : / 5.1 Ch / 384 kbps / БЗ / NTN
Language                                 : Ukrainian
Service kind                             : Complete Main
Default                                  : Yes
Forced                                   : Yes

Audio #2
ID                                       : 3
Format                                   : AC-3
Format/Info                              : Audio Coding 3
Commercial name                          : Dolby Digital
Codec ID                                 : A_AC3
Duration                                 : 2 h 8 min
Bit rate mode                            : Constant
Bit rate                                 : 640 kb/s
Channel(s)                               : 6 channels
Channel layout                           : L R C LFE Ls Rs
Sampling rate                            : 48.0 kHz
Frame rate                               : 31.250 FPS (1536 SPF)
Bit depth                                : 16 bits
Compression mode                         : Lossy
Stream size                              : 589 MiB (10%)
Title                                    : / 5.1 Ch / 640 kbps / Original
Language                                 : English
Service kind                             : Complete Main
Default                                  : No
Forced                                   : No

Text
ID                                       : 4
Format                                   : UTF-8
Codec ID                                 : S_TEXT/UTF8
Codec ID/Info                            : UTF-8 Plain Text
Duration                                 : 2 h 1 min
Bit rate                                 : 45 b/s
Count of elements                        : 921
Stream size                              : 40.1 KiB (0%)
Title                                    : Full
Language                                 : English
Default                                  : Yes
Forced                                   : No

Menu
00:00:00.000                             : :Chapter 01
00:07:25.278                             : :Chapter 02
00:11:48.082                             : :Chapter 03
00:15:07.114                             : :Chapter 04
00:23:37.457                             : :Chapter 05
00:32:09.385                             : :Chapter 06
00:40:56.787                             : :Chapter 07
00:48:47.633                             : :Chapter 08
00:56:36.351                             : :Chapter 09
01:07:43.434                             : :Chapter 10
01:12:28.385                             : :Chapter 11
01:20:42.796                             : :Chapter 12
01:35:50.202                             : :Chapter 13
01:52:22.777                             : :Chapter 14
01:54:12.095                             : :Chapter 15
01:57:39.469                             : :Chapter 16
Світлини




Джерело: &
Особиста оцінка: 0 - не дивився


Срібний реліз (на рейтинг впливає 50% завантаженого)
 Трекер:    Зареєстрований   

Завантажити / скачати фільм українською



відео для новачків



 Зареєстрований:   2019-09-28 22:43
 Розмір:   6.03 GB 
 Оцінка фільму:   10/10 (Голосів: 2)
   
Ваш часовий пояс: GMT + 2 Години

Нова тема   Відповісти