Тука й Берті (Сезон 1) / Tuca & Bertie (Season 1) (2019) 1080p Ukr/Eng

Нові коментарі

Нова тема   Відповісти
Останній раз роздавалося simpsonsua (2020-10-12)
Автор Повідомлення
simpsonsua 
VIP


З нами з: 13.03.18
Востаннє: 10.04.21
Повідомлень: 357

2019-09-28 22:02  
Тука й Берті (Сезон 1) / Tuca & Bertie (Season 1) (2019) 1080p Ukr/Eng


Тука й Берті (Сезон 1) / Tuca & Bertie (Season 1) (2019) 1080p Ukr/Eng


Якщо вам сподобалося озвучення мультсеріалу,
то ви можете підтримати нас за посиланням
ТИЦЬ


Жанр: анімація, комедія
Країна: США



Кінокомпанія: Tornante Company, ShadowMachine
Режисер: Аарон Лонг, Емі Вінфрі, Моллі Гелмс
Актори/ролі озвучують: Тіффані Геддіш, Алі Вонг, Стівен Юн, Ніколь Бьєр та інші

Сюжет:
Комедійний серіал розповість про двох подруг - 30-літніх птахів, що живуть в одному багатоповерховому будинку. Тука - безтурботний тукан, любителька вечірок і свят. Берті, в свою чергу, скромна пташка, яка схильна до тривог та полюбляє мріяти.


Перекладено та озвучено студією сайту simpsonsua.tv за підтримки fishMD


Тривалість: 1 серія: 25 хв. (цілком серій: 10)
Перелік серій

01. The Sugar Bowl / Цукорничка
02. The Promotion / Підвищення
03. The Deli Guy / Хлопець із забігайлівки
04. The Sex Bugs / Блощиці
05. Plumage / Оперення
06. The Open House / Купівля будинку
07. Yeast Week / Тісто-тиждень
08. The New Bird / Новенька
09. The Jelly Lakes / Кисільні озера
10. SweetBeak / Солодкий дзьобик
Якість: 1080p
Відео:
кодек:
розмір кадру: 1920 х 1080
бітрейт: 6 330 кб/с

Аудіо # 1:
мова: українська | "simpsonsua.tv"
озвучення: професійне багатоголосе закадрове
кодек: 5.1
бітрейт: 448 кб/с

Аудіо # 2:
мова: англійська
переклад: оригінал
кодек: E- 5.1
бітрейт: 640 kb/s
Info
Format :
Format version : Version 4
File size : 952 MiB
Duration : 25 min 40 s
Overall bit rate mode : Variable
Overall bit rate : 5 187 kb/s
Movie name : Тука й Берті / Tuca & Bertie - S01E01 (2019) 1080p [Ukr.Eng] [simpsonsua.tv]
Encoded date : UTC 2020-02-16 21:10:08
Writing application : v6.8.0 ('Theme for Great Cities') 32bit built on Mar 2 2014 21:27:07
Writing library : libebml v1.3.0 + v1.4.1

Video
ID : 1
Format : AVC
Format/Info : Advanced Video Codec
Format profile : [email protected]
Format settings : CABAC / 3 Ref Frames
Format settings, CABAC : Yes
Format settings, Reference : 3 frames
Codec ID : V_MPEG4/ISO/AVC
Duration : 25 min 40 s
Bit rate mode : Variable
Bit rate : 3 995 kb/s
Nominal bit rate : 4 220 kb/s
Maximum bit rate : 6 330 kb/s
Width : 1 920 pixels
Height : 1 080 pixels
Display aspect ratio : 16:9
Frame rate mode : Constant
Frame rate : 23.976 (24000/1001) FPS
Color space : YUV
Chroma subsampling : 4:2:0
Bit depth : 8 bits
Scan type : Progressive
Bits/(Pixel*Frame) : 0.080
Stream size : 734 MiB (77%)
Writing library : core 148 r2715 7e75228
Encoding settings : cabac=1 / ref=3 / deblock=1:0:0 / analyse=0x1:0x111 / me=umh / subme=10 / psy=1 / psy_rd=1.00:0.00 / mixed_ref=1 / me_range=24 / chroma_me=1 / trellis=2 / 8x8dct=0 / cqm=0 / deadzone=21,11 / fast_pskip=1 / chroma_qp_offset=-2 / threads=8 / lookahead_threads=1 / sliced_threads=0 / nr=0 / decimate=1 / interlaced=0 / bluray_compat=0 / stitchable=1 / constrained_intra=0 / bframes=2 / b_pyramid=0 / b_adapt=2 / b_bias=0 / direct=3 / weightb=1 / open_gop=0 / weightp=2 / keyint=48 / keyint_min=25 / scenecut=0 / intra_refresh=0 / rc_lookahead=48 / rc=2pass / mbtree=1 / bitrate=4220 / ratetol=1.0 / qcomp=0.50 / qpmin=6 / qpmax=51 / qpstep=4 / cplxblur=20.0 / qblur=0.5 / vbv_maxrate=6330 / vbv_bufsize=8440 / nal_hrd=vbr / filler=0 / ip_ratio=1.40 / aq=1:1.00
Default : Yes
Forced : No

Audio #1
ID : 2
Format : AC-3
Format/Info : Audio Coding 3
Commercial name : Dolby Digital
Codec ID : A_AC3
Duration : 25 min 40 s
Bit rate mode : Constant
Bit rate : 448 kb/s
Channel(s) : 6 channels
Channel layout : L R C LFE Ls Rs
Sampling rate : 48.0 kHz
Frame rate : 31.250 FPS (1536 SPF)
Bit depth : 16 bits
Compression mode : Lossy
Stream size : 82.3 MiB (9%)
Title : Українська
Language : Ukrainian
Service kind : Complete Main
Default : Yes
Forced : No

Audio #2
ID : 3
Format : E-AC-3
Format/Info : Enhanced AC-3
Commercial name : Dolby Digital Plus
Codec ID : A_EAC3
Duration : 25 min 40 s
Bit rate mode : Constant
Bit rate : 640 kb/s
Channel(s) : 6 channels
Channel layout : L R C LFE Ls Rs
Sampling rate : 48.0 kHz
Frame rate : 31.250 FPS (1536 SPF)
Compression mode : Lossy
Stream size : 118 MiB (12%)
Title : English
Language : English
Service kind : Complete Main
Default : No
Forced : No
Скріншоти:


Озвучено студією сайту:
Ролі озвучили: Роман Чупіс, Юля Малахова, Ольга Мотрич та Мар'яна Янкевич.


Авторський реліз (завантажувати можна без реєстрації)
 Трекер:    Зареєстрований   

Завантажити / скачати мультфільм українською



відео для новачків



 Зареєстрований:   2020-03-03 20:30
 Розмір:   10.04 GB 
 Оцінка мультсеріалу:   10/10 (Голосів: 11)
 Перекладено весь сезон.
   
bot 
робот


З нами з: 30.09.07
Востаннє: 26.05.05
Повідомлень: 27965

2019-09-28 22:22  
Тему перенесено з Мультсеріали до форуму Мультсеріали в HD


simpsonsua

simpsonsua 
VIP


З нами з: 13.03.18
Востаннє: 10.04.21
Повідомлень: 357

2020-02-18 23:58  
Переклали та озвучили 5-6 серії.
Перезведено звук до всіх серій під 5.1, тепер якість набагато краща!


Бажаємо всім приємного перегляду!

simpsonsua 
VIP


З нами з: 13.03.18
Востаннє: 10.04.21
Повідомлень: 357

2020-03-03 20:31  
Переклали та озвучили 7-10 серії.
Сезон завершено!


Бажаємо всім приємного перегляду!

Ваш часовий пояс: GMT + 2 Години

Нова тема   Відповісти