Хороший, поганий, злий / The Good, the Bad and the Ugly [Extended Version] (1966) AVC 2xUkr/Eng | Sub Ukr/Eng

Нові коментарі

Нова тема   Відповісти
Автор Повідомлення
Arsenfpu 
Відео Гуртом - фільмокрай
Відео Гуртом - фільмокрай


З нами з: 30.04.09
Востаннє: 18.10.19
Повідомлень: 6150

2019-09-28 20:20  
Хороший, поганий, злий / The Good, the Bad and the Ugly [Extended Version] (1966) AVC 2xUkr/Eng | Sub Ukr/Eng

Хороший, поганий, злий / The Good, the Bad and the Ugly [Extended Version] (1966) AVC 2xUkr/Eng | Sub Ukr/Eng


Жанр: бойовик, пригоди, вестерн
Країна: Італія, Іспанія, Німеччина (ФРН)



Кінокомпанія: Arturo González Producciones Cinematográficas, S.A, Constantin Film Produktion, Produzioni Europee Associati (PEA)
Режисер: Серджіо Леоне
Актори: Клінт Іствуд, Елі Воллах, Лі Ван Кліф, Альдо Жоффре, Луіджі Пістіллі

Сюжет:
У розпал громадянської війни таємничий стрілець поневіряється по просторах Дикого Заходу. У нього немає ні дому, ні друзів, ні компаньйонів, поки він не зустрічає двох незнайомців, таких же безжальних і цинічних.


Тривалість: 02:58:36
Якість:
Відео:
кодек:
розмір кадру: 1 024 х 432
бітрейт: 2 299 кб/с

Аудіо # 1:
мова: українська
переклад: двоголосий закадровий (з 5.1)
кодек: 2.0
бітрейт: 192 кб/с

Аудіо # 2:
мова: українська
переклад: багатоголосий закадровий (з 5.1)
кодек: 2.0
бітрейт: 192 кб/с

Аудіо # 3:
мова: англійська
переклад: оригінал
кодек: 2.0
бітрейт: 192 кб/с

Субтитри:
мова: українська (повні, форсовані на місця без перекладу у другій доріжці)
тип: пререндерні
формат: *.pgs

Субтитри:
мова: англійська
тип: пререндерні
формат: *.pgs
Про файл
General
Unique ID : 37824261362275069184740961619621071760 (0x1C74B010EBC4823DCCA4A2D765B64B90)
Complete name : C:\The Good, the Bad and the Ugly (1966) [2xUkr,Eng] AVC [Hurtom].
Format :
Format version : Version 4 / Version 2
File size : 3.61 GiB
Duration : 2 h 58 min
Overall bit rate : 2 890 kb/s
Movie name : Хороший, поганий, злий / The Good, the Bad and the Ugly (1966)
Encoded date : UTC 2019-09-28 16:29:06
Writing application : v21.0.0 ('Tardigrades Will Inherit The Earth') 32-bit
Writing library : libebml v1.3.5 + v1.4.8
Cover : Yes
Attachments : cover.jpg

Video
ID : 1
Format : AVC
Format/Info : Advanced Video Codec
Format profile : [email protected]
Format settings, CABAC : Yes
Format settings, ReFrames : 4 frames
Codec ID : V_MPEG4/ISO/AVC
Duration : 2 h 58 min
Bit rate : 2 299 kb/s
Width : 1 024 pixels
Height : 432 pixels
Display aspect ratio : 2.40:1
Frame rate mode : Constant
Frame rate : 23.976 (24000/1001) FPS
Color space : YUV
Chroma subsampling : 4:2:0
Bit depth : 8 bits
Scan type : Progressive
Bits/(Pixel*Frame) : 0.217
Stream size : 2.87 GiB (79%)
Writing library : core 157 r2935 545de2f
Encoding settings : cabac=1 / ref=3 / deblock=1:-1:-1 / analyse=0x3:0x113 / me=hex / subme=7 / psy=1 / psy_rd=1.00:0.15 / mixed_ref=1 / me_range=16 / chroma_me=1 / trellis=1 / 8x8dct=1 / cqm=0 / deadzone=21,11 / fast_pskip=1 / chroma_qp_offset=-3 / threads=12 / lookahead_threads=2 / sliced_threads=0 / nr=0 / decimate=1 / interlaced=0 / bluray_compat=0 / constrained_intra=0 / bframes=3 / b_pyramid=2 / b_adapt=1 / b_bias=0 / direct=1 / weightb=1 / open_gop=0 / weightp=2 / keyint=240 / keyint_min=23 / scenecut=40 / intra_refresh=0 / rc_lookahead=40 / rc=2pass / mbtree=1 / bitrate=2299 / ratetol=1.0 / qcomp=0.60 / qpmin=0 / qpmax=69 / qpstep=4 / cplxblur=20.0 / qblur=0.5 / ip_ratio=1.40 / aq=1:1.00
Default : Yes
Forced : No

Audio #1
ID : 2
Format : AC-3
Format/Info : Audio Coding 3
Mode extension : CM (complete main)
Format settings, Endianness : Big
Codec ID : A_AC3
Duration : 2 h 58 min
Bit rate mode : Constant
Bit rate : 192 kb/s
Channel(s) : 2 channels
Channel positions : Front: L R
Sampling rate : 48.0 kHz
Frame rate : 31.250 FPS (1536 spf)
Compression mode : Lossy
Stream size : 245 MiB (7%)
Title : 1+1
Language : Ukrainian
Default : Yes
Forced : Yes

Audio #2
ID : 3
Format : AC-3
Format/Info : Audio Coding 3
Mode extension : CM (complete main)
Format settings, Endianness : Big
Codec ID : A_AC3
Duration : 2 h 58 min
Bit rate mode : Constant
Bit rate : 192 kb/s
Channel(s) : 2 channels
Channel positions : Front: L R
Sampling rate : 48.0 kHz
Frame rate : 31.250 FPS (1536 spf)
Compression mode : Lossy
Stream size : 245 MiB (7%)
Title : КІНО
Language : Ukrainian
Default : No
Forced : No

Audio #3
ID : 4
Format : AC-3
Format/Info : Audio Coding 3
Mode extension : CM (complete main)
Format settings, Endianness : Big
Codec ID : A_AC3
Duration : 2 h 58 min
Bit rate mode : Constant
Bit rate : 192 kb/s
Channel(s) : 2 channels
Channel positions : Front: L R
Sampling rate : 48.0 kHz
Frame rate : 31.250 FPS (1536 spf)
Compression mode : Lossy
Stream size : 245 MiB (7%)
Language : English
Default : No
Forced : No

Text #1
ID : 5
Format : PGS
Muxing mode : zlib
Codec ID : S_HDMV/PGS
Codec ID/Info : Picture based subtitle format used on BDs/HD-DVDs
Duration : 2 h 45 min
Bit rate : 21.4 kb/s
Count of elements : 1980
Stream size : 25.4 MiB (1%)
Language : Ukrainian
Default : Yes
Forced : No

Text #2
ID : 6
Format : PGS
Muxing mode : zlib
Codec ID : S_HDMV/PGS
Codec ID/Info : Picture based subtitle format used on BDs/HD-DVDs
Duration : 2 h 29 min
Bit rate : 3 241 b/s
Count of elements : 236
Stream size : 3.46 MiB (0%)
Language : Ukrainian
Default : No
Forced : No

Text #3
ID : 7
Format : PGS
Muxing mode : zlib
Codec ID : S_HDMV/PGS
Codec ID/Info : Picture based subtitle format used on BDs/HD-DVDs
Duration : 2 h 45 min
Bit rate : 18.1 kb/s
Count of elements : 2052
Stream size : 21.4 MiB (1%)
Language : English
Default : No
Forced : No
Скріншоти














Джерело:
За українські доріжки дякую пану Romario_O
За матеріал для відео дякую пану kryk-v.ya.
За постер дякую пану Gelios
Особиста оцінка: "на цьому світі є два типи людей: ті, в кого зброя заряджена і ті, хто копає" Happy


Срібний реліз (на рейтинг впливає 50% завантаженого)
 Трекер:    Зареєстрований   

Завантажити / скачати фільм українською



відео для новачків



 Зареєстрований:   2019-09-28 20:20
 Розмір:   3.61 GB 
 Оцінка фільму:   9.9/10 (Голосів: 12)
   
qwasasqw 
Поважний учасник


З нами з: 01.01.11
Востаннє: 18.10.19
Повідомлень: 220

2019-09-28 21:20  
Один з найкращих фільмів в історії кінематографу.
ig2715 
Новенький


З нами з: 18.10.14
Востаннє: 18.10.19
Повідомлень: 11

2019-09-29 09:17  
Гарне кіно.
qwasasqw 
Поважний учасник


З нами з: 01.01.11
Востаннє: 18.10.19
Повідомлень: 220

2019-09-29 16:15  
Чекаємо третю частину трилогії в avc (тобто 2-гу за порядковим номером)

Додано через 2 години 8 хвилин 7 секунд:

До речі реставрована версія саме цього фільму трилогії чомусь вийшла у якихось жовтих відтінках...Свого часу цей фільм запам ятався яскравими пейзажами на фоні голубого неба, як у скріншотах у цій роздачі https://toloka.to/t2925 . А тут все "жовтувате") Гіфка у оформленні релізу(де оцінка) також у звичних якскравих(не жовтих) кольорах...Цікаво чому так.....Подібна ситуація з ще одним фільмом Леоне "Одного разу в Америці".бд ріп фільму має чудові кольори, а бд розширеної версії в дивних тонах.

Ваш часовий пояс: GMT + 2 Години

Нова тема   Відповісти