Останній незайманий в Америці / The Last American Virgin (1982) 720p Ukr/Eng | Sub Eng

Нові коментарі

Нова тема   Відповісти
Останній раз роздавалося proxim (2020-09-27)
Автор Повідомлення
Anonymous 







2019-09-28 12:11  
Останній незайманий в Америці / The Last American Virgin (1982) 720p Ukr/Eng | Sub Eng

Останній незайманий в Америці / The Last American Virgin (1982) 720p Ukr/Eng | Sub Eng


Жанр: комедія, драма, романтика
Країна: США
Кінокомпанія: Golan-Globus Productions
Режисер: Боаз Девідсон
Актори: Лоуренс Моносон, Даян Франклін, Стів Ентін, Джо Руббо

Сюжет:
Трійця старшокласників-невдах - спритник, товстун і сором'язливий - переживають перший еротичний досвід. Сором'язливому дуже хочеться, але довго не вдається покінчити із власною незайманістю...

Тривалість: 01:33:00
Якість:

Відео:
кодек:
розмір кадру: 1278 x 692
бітрейт: 8 780 кб/с

Аудіо # 1:
мова: українська
переклад: багатоголосий закадровий
кодек: AC-3 2.0
бітрейт: 192 кб/с

Аудіо # 2:
мова: англійська
переклад: оригінал
кодек: AC-3 2.0
бітрейт: 384 кб/с

Субтитри # 1: (Full)
мова: англійська
тип: програмні (м'які)
формат: *.srt


Info
Код:
General
Unique ID                                : 340164842111592291560695772406853499373 (0xFFE95D945C36DB115BFDAA46F5A579ED)
Complete name                            : The Last American Virgin (1982) 720p [UKR_ENG] [Hurtom].
Format                                   :
Format version                           : Version 4
File size                                : 6.08 GiB
Duration                                 : 1 h 33 min
Overall bit rate                         : 9 357 kb/s
Movie name                               : Останній незайманий в Америці / The Last American Virgin (1982)
Encoded date                             : UTC 2019-09-28 08:56:33
Writing application                      : v20.0.0 ('I Am The Sun') 64-bit
Writing library                          : libebml v1.3.5 + v1.4.8
Cover                                    : Yes
Attachments                              : Cover.jpg

Video
ID                                       : 1
Format                                   : AVC
Format/Info                              : Advanced Video Codec
Format profile                           : [email protected]
Format settings                          : CABAC / 9 Ref Frames
Format settings, CABAC                   : Yes
Format settings, Reference frames        : 9 frames
Codec ID                                 : V_MPEG4/ISO/AVC
Duration                                 : 1 h 33 min
Bit rate                                 : 8 780 kb/s
Width                                    : 1 278 pixels
Height                                   : 692 pixels
Display aspect ratio                     : 1.85:1
Frame rate mode                          : Constant
Frame rate                               : 23.976 (24000/1001) FPS
Color space                              : YUV
Chroma subsampling                       : 4:2:0
Bit depth                                : 8 bits
Scan type                                : Progressive
Bits/(Pixel*Frame)                       : 0.414
Stream size                              : 5.70 GiB (94%)
Title                                    : Останній незайманий в Америці / The Last American Virgin (1982)
Writing library                          : core 152 r2851kMod ba24899
Encoding settings                        : cabac=1 / ref=9 / deblock=1:-2:-2 / analyse=0x3:0x113 / me=umh / subme=10 / psy=1 / fade_compensate=0.00 / psy_rd=1.05:0.10 / mixed_ref=1 / me_range=40 / chroma_me=1 / trellis=2 / 8x8dct=1 / cqm=0 / deadzone=21,11 / fast_pskip=1 / chroma_qp_offset=-3 / threads=12 / lookahead_threads=3 / sliced_threads=0 / nr=0 / decimate=1 / interlaced=0 / bluray_compat=0 / constrained_intra=0 / bframes=10 / b_pyramid=2 / b_adapt=2 / b_bias=0 / direct=1 / weightb=1 / open_gop=0 / weightp=2 / keyint=240 / keyint_min=23 / scenecut=40 / intra_refresh=0 / rc=crf / mbtree=0 / crf=17.5000 / qcomp=0.63 / qpmin=0 / qpmax=69 / qpstep=4 / ip_ratio=1.40 / pb_ratio=1.30 / aq=2:1.00
Language                                 : English
Default                                  : Yes
Forced                                   : No
Color range                              : Limited
Color primaries                          : BT.709
Transfer characteristics                 : BT.709
Matrix coefficients                      : BT.709

Audio #1
ID                                       : 2
Format                                   : AC-3
Format/Info                              : Audio Coding 3
Commercial name                          : Dolby Digital
Codec ID                                 : A_AC3
Duration                                 : 1 h 33 min
Bit rate mode                            : Constant
Bit rate                                 : 192 kb/s
Channel(s)                               : 2 channels
Channel layout                           : L R
Sampling rate                            : 48.0 kHz
Frame rate                               : 31.250 FPS (1536 SPF)
Bit depth                                : 16 bits
Compression mode                         : Lossy
Stream size                              : 128 MiB (2%)
Title                                    : / 2.0 Ch / 192 kbps / БЗ / Inter
Language                                 : Ukrainian
Service kind                             : Complete Main
Default                                  : Yes
Forced                                   : Yes

Audio #2
ID                                       : 3
Format                                   : AC-3
Format/Info                              : Audio Coding 3
Commercial name                          : Dolby Digital
Codec ID                                 : A_AC3
Duration                                 : 1 h 33 min
Bit rate mode                            : Constant
Bit rate                                 : 384 kb/s
Channel(s)                               : 2 channels
Channel layout                           : L R
Sampling rate                            : 48.0 kHz
Frame rate                               : 31.250 FPS (1536 SPF)
Bit depth                                : 16 bits
Compression mode                         : Lossy
Stream size                              : 255 MiB (4%)
Title                                    : / 5.1 Ch / 384 kbps / Original
Language                                 : English
Service kind                             : Complete Main
Default                                  : No
Forced                                   : No

Text
ID                                       : 4
Format                                   : UTF-8
Codec ID                                 : S_TEXT/UTF8
Codec ID/Info                            : UTF-8 Plain Text
Duration                                 : 1 h 29 min
Bit rate                                 : 48 b/s
Count of elements                        : 1193
Stream size                              : 32.2 KiB (0%)
Title                                    : Full
Language                                 : English
Default                                  : No
Forced                                   : No

Menu
00:00:00.000                             : en:Main Title/Pickup
00:05:38.367                             : en:Party of Six
00:15:13.500                             : en:Shaken Parents
00:17:56.500                             : en:Showered in Victory
00:20:36.867                             : en:Flat-Out Flirting
00:24:21.668                             : en:"Good Night, Gary!"
00:33:20.502                             : en:That's Some Delivery
00:37:04.836                             : en:What A Nympho!"
00:47:28.036                             : en:Joy Riding
00:52:05.004                             : en:Let's Get It On!"
00:58:50.171                             : en:Drowning Crabs
01:04:45.039                             : en:Tonight's the Night
01:10:51.740                             : en:An Honorable Guy
01:15:04.708                             : en:Successful Operation
01:22:51.075                             : en:"To Karen, With Love"
01:27:46.375                             : en:Brokenhearted/Credits
Світлини




Джерело: &
Особиста оцінка: 0 - не дивився


Срібний реліз (на рейтинг впливає 50% завантаженого)
 Трекер:    Зареєстрований   

Завантажити / скачати фільм українською



відео для новачків



 Зареєстрований:   2019-09-28 12:11
 Розмір:   6.08 GB 
 Оцінка фільму:   10/10 (Голосів: 4)
   
pvm65 
Свій


З нами з: 02.01.16
Востаннє: 29.09.20
Повідомлень: 110

2019-10-13 20:02  
"Трійця невдалих старшокласників"
можливо "невдах"

Ваш часовий пояс: GMT + 2 Години

Нова тема   Відповісти