Поцілунок навиліт / Kiss Kiss Bang Bang (2005) AVC [Open Matte] Ukr/Eng | Sub Eng

Нові коментарі

Нова тема   Відповісти
Автор Повідомлення
Anonymous 







2019-09-28 11:33  
Поцілунок навиліт / Kiss Kiss Bang Bang (2005) AVC [Open Matte] Ukr/Eng | Sub Eng

Поцілунок навиліт / Kiss Kiss Bang Bang (2005) AVC [Open Matte] Ukr/Eng | Sub Eng


Жанр: бойовик, комедія, мелодрама, трилер
Країна: США



Режисер: Шейн Блек / Shane Black
Актори: Роберт Дауні мол. / Robert Downey Jr., Вел Кілмер / Val Kilmer, Мішель Монаган / Michelle Monaghan, Корбін Бернсен / Corbin Bernsen, Деш Міхок / Dash Mihok, Ларрі Міллер / Larry Miller, Рокмонд Данбар / Rockmond Dunbar, Шаннін Соссамон / Shannyn Sossamon, Анджела Ліндвалл / Angela Lindvall, Індіо Фалконер Дауні / Indio Falconer Downey та інші.

Сюжет:
Дрібний злодій зображаючи актора, приїжджає до Лос-Анжелеса взяти участь в прослуховуванні. Незабаром він опиниться в самому центрі розслідування вбивства разом з сексуальною студенткою і приватним детективом-геєм.


Рейтинг MPAA: R - особам до 17 років обов'язкова присутність батьків або дорослого опікуна
Вікова категорія: 16+
Тривалість: 01:42:49
Якість: AVC [Open Matte, Amazon Cinemax] - має більше наповнення кадру в порівнянні з блуреєм
Порівняння наповнення кадру з блуреєм:
Відео:
кодек:
розмір кадру: 1024 x 576
бітрейт: 2232 кб/с

Аудіо # 1:
мова: українська
переклад: багатоголосий закадровий
кодек: 2.0
бітрейт: 192 кб/с
примітка: доріжку виправлено, тепер без ефекту "зламаного піаніно", як в старіших релізах
ролі озвучили: Вел Кілмер — Євген Пашин, Роберт Дауні мол. — Михайло Тишин і один жіночий голос

Аудіо # 2:
мова: англійська
переклад: оригінал
кодек: 5.1
бітрейт: 448 кб/с

Субтитри # 1-2:
мова: англійська (повні, SDH)
тип: програмні (м'які)
формат: *.srt

Додано підігнані з блурея оригінальні поіменовані розділи
Info та log:
Код:

Complete name               : Kiss Kiss Bang Bang [Open Matte] (2005) [Ukr,Eng sub.Eng]  AVC [Hurtom].
Format                      :
Format version              : Version 4
File size                   : 2.06 GiB
Duration                    : 1 h 42 min
Overall bit rate            : 2 874 kb/s
Movie name                  : Поцілунок навиліт / Kiss Kiss Bang Bang [Open Matte] (2005) [Ukr,Eng sub.Eng] AVC [Hurtom]
Encoded date                : UTC 2019-09-28 10:46:41
Writing application         : v37.0.0 ('Leave It') 64-bit
Writing library             : libebml v1.3.9 + v1.5.2
Cover                       : Yes
Attachments                 : cover.jpg

Video
ID                          : 1
Format                      : AVC
Format/Info                 : Advanced Video Codec
Format profile              : [email protected]
Format settings             : CABAC / 14 Ref Frames
Format settings, CABAC      : Yes
Format settings, Reference  : 14 frames
Codec ID                    : V_MPEG4/ISO/AVC
Duration                    : 1 h 42 min
Bit rate                    : 2 232 kb/s
Width                       : 1 024 pixels
Height                      : 576 pixels
Display aspect ratio        : 16:9
Frame rate mode             : Constant
Frame rate                  : 23.976 (24000/1001) FPS
Color space                 : YUV
Chroma subsampling          : 4:2:0
Bit depth                   : 8 bits
Scan type                   : Progressive
Bits/(Pixel*Frame)          : 0.158
Stream size                 : 1.60 GiB (78%)
Title                       : Поцілунок навиліт / Kiss Kiss Bang Bang (2005) [Open Matte] AVC [-=DoMiNo=-]
Writing library             : core 157 r2935 545de2f
Encoding settings           : cabac=1 / ref=14 / deblock=1:-2:-2 / analyse=0x3:0x133 / me=umh / subme=10 / psy=1 / psy_rd=1.00:0.15 / mixed_ref=1 / me_range=32 / chroma_me=1 / trellis=2 / 8x8dct=1 / cqm=0 / deadzone=21,11 / fast_pskip=1 / chroma_qp_offset=-3 / threads=6 / lookahead_threads=1 / sliced_threads=0 / nr=0 / decimate=1 / interlaced=0 / bluray_compat=0 / constrained_intra=0 / bframes=9 / b_pyramid=2 / b_adapt=2 / b_bias=0 / direct=3 / weightb=1 / open_gop=0 / weightp=2 / keyint=250 / keyint_min=24 / scenecut=40 / intra_refresh=0 / rc_lookahead=250 / rc=crf / mbtree=0 / crf=19.0 / qcomp=0.70 / qpmin=0 / qpmax=69 / qpstep=4 / vbv_maxrate=50000 / vbv_bufsize=62500 / crf_max=0.0 / nal_hrd=none / filler=0 / ip_ratio=1.40 / pb_ratio=1.30 / aq=3:0.80
Language                    : English
Default                     : Yes
Forced                      : No
Color range                 : Limited
Color primaries             : BT.709
Transfer characteristics    : BT.709
Matrix coefficients         : BT.709

Audio #1
ID                          : 2
Format                      : AC-3
Format/Info                 : Audio Coding 3
Commercial name             : Dolby Digital
Codec ID                    : A_AC3
Duration                    : 1 h 42 min
Bit rate mode               : Constant
Bit rate                    : 192 kb/s
Channel(s)                  : 2 channels
Channel layout              : L R
Sampling rate               : 48.0 kHz
Frame rate                  : 31.250 FPS (1536 SPF)
Compression mode            : Lossy
Stream size                 : 141 MiB (7%)
Title                       : MVO [Unknow], 2.0 192 Kbps [fixed]
Language                    : Ukrainian
Service kind                : Complete Main
Default                     : Yes
Forced                      : Yes

Audio #2
ID                          : 3
Format                      : AC-3
Format/Info                 : Audio Coding 3
Commercial name             : Dolby Digital
Codec ID                    : A_AC3
Duration                    : 1 h 42 min
Bit rate mode               : Constant
Bit rate                    : 448 kb/s
Channel(s)                  : 6 channels
Channel layout              : L R C LFE Ls Rs
Sampling rate               : 48.0 kHz
Frame rate                  : 31.250 FPS (1536 SPF)
Compression mode            : Lossy
Stream size                 : 330 MiB (16%)
Title                       : Original, 5.1 448 Kbps
Language                    : English
Service kind                : Complete Main
Default                     : No
Forced                      : No

Text #1
ID                          : 4
Format                      : UTF-8
Codec ID                    : S_TEXT/UTF8
Codec ID/Info               : UTF-8 Plain Text
Duration                    : 1 h 37 min
Bit rate                    : 90 b/s
Count of elements           : 1931
Stream size                 : 64.9 KiB (0%)
Title                       : Eng Full
Language                    : English
Default                     : No
Forced                      : No

Text #2
ID                          : 5
Format                      : UTF-8
Codec ID                    : S_TEXT/UTF8
Codec ID/Info               : UTF-8 Plain Text
Duration                    : 1 h 37 min
Bit rate                    : 86 b/s
Count of elements           : 1509
Stream size                 : 61.8 KiB (0%)
Title                       : Eng SDH
Language                    : English
Default                     : No
Forced                      : No

Menu
00:00:08.136                : en:Magic Show
00:03:32.757                : en:Reality and Fiction Blur
00:08:32.890                : en:Harmony's Destiny
00:12:54.777                : en:One That Got Away
00:17:27.424                : en:Recognize Me
00:23:47.471                : en:Tongue-Tied
00:25:36.037                : en:Lady in the Lake
00:31:05.909                : en:Bad News Call
00:33:43.191                : en:Sudden Caseload
00:36:37.240                : en:Along Came a Spider
00:38:47.036                : en:Body Trouble
00:44:30.796                : en:Harmony's One Lie
00:46:50.477                : en:Not Harry's Part
00:49:14.913                : en:Putting His Finger on It
00:52:23.727                : en:Not a Movie
00:56:19.212                : en:Frying Pan and Fire
00:59:32.030                : en:Macarthur Park Mayhem
01:02:20.073                : en:Bang Bang
01:05:53.703                : en:Dog Food
01:07:23.667                : en:Unfinished
01:11:16.025                : en:Dream Girl Confesses
01:16:04.688                : en:Right Out of a Book
01:19:19.966                : en:Russian Roulette
01:22:59.477                : en:Stop Helping
01:26:19.177                : en:Body Snatcher
01:28:58.127                : en:Captain Magic
01:32:18.828                : en:One for the Books
01:35:32.104                : en:Big Tough Guys
01:38:38.457                : en:End Credits


Код:
info: frame I:1469 Avg QP:16.09 size: 66982
info: frame P:34062 Avg QP:17.50 size: 23566
info: frame B:112385 Avg QP:20.29 size: 7298
info: consecutive B-frames: 1.8% 1.7% 6.0% 47.9% 16.1% 19.5% 2.5% 3.5% 0.3% 0.6%



Джерело: &
Подяки: Hanway'ю за виправлення українського звуку, FireStar за українізований постер (виправлення - igor911), Weber'у та Romario_O за початкову доріжку, Hurtomivets за інформацію про озвучення.


 Трекер:    Зареєстрований   

Завантажити / скачати фільм українською



відео для новачків



 Зареєстрований:   2019-09-28 13:59
 Розмір:   2.06 GB 
 Оцінка фільму:   9.4/10 (Голосів: 12)
 ЗАЛИШАЙТЕСЬ ЯКОМОГА ДОВШЕ НА РОЗДАЧІ! ЗАВАНТАЖИВ САМ - ДАЙ ЗАВАНТАЖИТИ ІНШИМ!
   
bot 
робот


З нами з: 30.09.07
Востаннє: 26.05.05
Повідомлень: 22323

2019-09-28 13:59  
Тему перенесено з Анонси релізів до форуму Фільми


igor911

подвох 
Новенький


З нами з: 29.03.18
Востаннє: 20.10.19
Повідомлень: 15

2019-09-29 21:08  
як нафарбуються то хоть стій хоть стойHappy)))це я про фото мадамов
BIGor85 
Новенький


З нами з: 17.12.12
Востаннє: 19.10.19
Повідомлень: 7

2019-09-29 21:25  
Дуже прикольний фільм, правда сцен 16+ майже немає.
t850 
Поважний учасник


З нами з: 03.10.12
Востаннє: 20.10.19
Повідомлень: 243

2019-10-01 20:39  
А не погана фігня.
Ваш часовий пояс: GMT + 2 Години

Нова тема   Відповісти