Битва за Землю / Captive State (2019) 1080p H.265 Ukr/Eng | Sub Eng

Нові коментарі

Нова тема   Відповісти
Автор Повідомлення
Anonymous 







2019-09-28 00:10  
Битва за Землю / Captive State (2019) 1080p H.265 Ukr/Eng | Sub Eng

Битва за Землю / Captive State (2019) 1080p H.265 Ukr/Eng | Sub Eng


Жанр: драма, трилер, фантастика
Країна: США
Кінокомпанія: DreamWorks, Amblin Partners, Lightfuse & Gettaway
Режисер: Руперт Ваятт / Rupert Wyatt
Актори: Джон Гудмен / John Goodman, Віра Фарміґа / Vera Farmiga, Ештон Сандерс / Ashton Sanders, Джонатан Мейджерс / Jonathan Majors, Кевін Данн / Kevin Dunn, Джеймс Ренсон / James Ransone, Алан Рак / Alan Ruck, Маделін Брюер / Madeline Brewer, Мешін Ган Келлі (Колсон Бейкер) / Machine Gun Kelly, Кевін Джей О'Коннор / Kevin J. O'Connor, Кікі Лейн / KiKi Layne та інші.

Сюжет:
Вже 10 років Земля захоплена прибульцями. Частина населення стала колаборантами, але частина продовжує чинити опір, веде боротьбу. Очільник поліції Чикаго має лише добу, аби впіймати лідера повстанців Фенікса, інакше місто не врятувати.

Тривалість: 01:49:34
Якість:

Відео:
кодек: H.265 (HEVC)
розмір кадру: 1920 x 800
бітрейт: 6959 кб/с
бітова глибина: 10 біт

Увага! Перед завантаженням переконайтесь, що ваш пристрій відтворення (та/або ПЗ) підтримує H.265 (HEVC)

Аудіо # 1:
мова: українська
переклад: професійний дубльований
кодек: AC-3 2.0
бітрейт: 192 кб/с
Інформація про дубляж
Перекладач: Віталій Жук
Редактор: Юлія Когут
Режисер дубляжу та звукорежисер перезапису: Олександр Єфімов
Ролі дублювали: Андрій Федінчик, Євген Пашин, Катерина Сергєєва, Дмитро Гаврилов, Катерина Буцька, Дмитро Завадський, Антоніна Якушева, Юрій Ребрик, Михайло Кришталь, Катерина Брайковська, Ярослав Чорненький, Ольга Радчук, Віктор Григор'єв, Павло Скороходько, Андрій Альохін, Дмитро Терещук, Михайло Тишин та інші.

Фільм дубльовано студією ААА-sound у 2019 році на замовлення компанії UFD.
Аудіо # 2:
мова: англійська
переклад: оригінал
кодек: 5.1
бітрейт: 1510 кб/с

Субтитри # 1: (Forced)
мова: українська
тип: програмні (м'які)
формат: *.srt

Субтитри # 2-3: (Full, SDH)
мова: англійська
тип: програмні (м'які)
формат: *.srt


Info
Код:
General
Unique ID                                : 16828119405440573831907221798624515562 (0xCA8FA581E13D363A434347E793D55EA)
Complete name                            : Captive State (2019) 1080p H.265 [UKR_ENG] [Hurtom].
Format                                   :
Format version                           : Version 4
File size                                : 6.63 GiB
Duration                                 : 1 h 49 min
Overall bit rate                         : 8 665 kb/s
Movie name                               : Битва за Землю / Captive State (2019)
Encoded date                             : UTC 2019-09-27 22:02:04
Writing application                      : v20.0.0 ('I Am The Sun') 64-bit
Writing library                          : libebml v1.3.5 + v1.4.8
Cover                                    : Yes
Attachments                              : Cover.jpg

Video
ID                                       : 1
Format                                   : HEVC
Format/Info                              : High Efficiency Video Coding
Format profile                           : Main [email protected]@High
Codec ID                                 : V_MPEGH/ISO/HEVC
Duration                                 : 1 h 49 min
Bit rate                                 : 6 959 kb/s
Width                                    : 1 920 pixels
Height                                   : 800 pixels
Display aspect ratio                     : 2.40:1
Frame rate mode                          : Constant
Frame rate                               : 23.976 (24000/1001) FPS
Color space                              : YUV
Chroma subsampling                       : 4:2:0
Bit depth                                : 10 bits
Bits/(Pixel*Frame)                       : 0.189
Stream size                              : 5.33 GiB (80%)
Title                                    : Битва за Землю / Captive State (2019)
Language                                 : English
Default                                  : Yes
Forced                                   : No
Color range                              : Limited
Color primaries                          : BT.709
Transfer characteristics                 : BT.709
Matrix coefficients                      : BT.709

Audio #1
ID                                       : 2
Format                                   : AC-3
Format/Info                              : Audio Coding 3
Commercial name                          : Dolby Digital
Codec ID                                 : A_AC3
Duration                                 : 1 h 49 min
Bit rate mode                            : Constant
Bit rate                                 : 192 kb/s
Channel(s)                               : 2 channels
Channel layout                           : L R
Sampling rate                            : 48.0 kHz
Frame rate                               : 31.250 FPS (1536 SPF)
Bit depth                                : 16 bits
Compression mode                         : Lossy
Stream size                              : 150 MiB (2%)
Title                                    : / 2.0 Ch / 192 kbps / ПД / Студія ААА-sound
Language                                 : Ukrainian
Service kind                             : Complete Main
Default                                  : Yes
Forced                                   : Yes

Audio #2
ID                                       : 3
Format                                   :
Format/Info                              : Digital Theater Systems
Codec ID                                 : A_DTS
Duration                                 : 1 h 49 min
Bit rate mode                            : Constant
Bit rate                                 : 1 509 kb/s
Channel(s)                               : 6 channels
Channel layout                           : C L R Ls Rs LFE
Sampling rate                            : 48.0 kHz
Frame rate                               : 93.750 FPS (512 SPF)
Bit depth                                : 24 bits
Compression mode                         : Lossy
Delay relative to video                  : 26 ms
Stream size                              : 1.15 GiB (17%)
Title                                    : / 5.1 Ch / 1509 kbps / Original
Language                                 : English
Default                                  : No
Forced                                   : No

Text #1
ID                                       : 4
Format                                   : UTF-8
Codec ID                                 : S_TEXT/UTF8
Codec ID/Info                            : UTF-8 Plain Text
Duration                                 : 1 h 40 min
Bit rate                                 : 3 b/s
Count of elements                        : 40
Stream size                              : 2.92 KiB (0%)
Title                                    : Forced
Language                                 : Ukrainian
Default                                  : Yes
Forced                                   : Yes

Text #2
ID                                       : 5
Format                                   : UTF-8
Codec ID                                 : S_TEXT/UTF8
Codec ID/Info                            : UTF-8 Plain Text
Duration                                 : 1 h 44 min
Bit rate                                 : 35 b/s
Count of elements                        : 803
Stream size                              : 27.5 KiB (0%)
Title                                    : Full
Language                                 : English
Default                                  : No
Forced                                   : No

Text #3
ID                                       : 6
Format                                   : UTF-8
Codec ID                                 : S_TEXT/UTF8
Codec ID/Info                            : UTF-8 Plain Text
Duration                                 : 1 h 45 min
Bit rate                                 : 46 b/s
Count of elements                        : 1123
Stream size                              : 35.6 KiB (0%)
Title                                    : SDH
Language                                 : English
Default                                  : No
Forced                                   : No

Menu
00:00:00.000                             : :Chapter 01
00:06:25.385                             : :Chapter 02
00:12:34.670                             : :Chapter 03
00:18:45.999                             : :Chapter 04
00:24:21.376                             : :Chapter 05
00:26:55.113                             : :Chapter 06
00:32:44.504                             : :Chapter 07
00:38:27.596                             : :Chapter 08
00:43:36.947                             : :Chapter 09
00:47:17.626                             : :Chapter 10
00:52:14.464                             : :Chapter 11
01:00:01.598                             : :Chapter 12
01:06:42.373                             : :Chapter 13
01:11:29.576                             : :Chapter 14
01:15:18.222                             : :Chapter 15
01:19:40.859                             : :Chapter 16
01:23:32.048                             : :Chapter 17
01:31:46.542                             : :Chapter 18
01:38:12.011                             : :Chapter 19
01:45:00.711                             : :Chapter 20
Світлини




Джерело: &
Особиста оцінка: 0 - не дивився


 Трекер:    Зареєстрований   

Завантажити / скачати фільм українською



відео для новачків



 Зареєстрований:   2019-09-28 00:10
 Розмір:   6.63 GB 
 Оцінка фільму:   7.8/10 (Голосів: 9)
   
Інші релізи
   Битва за Землю / Captive State (2019) 720p Ukr/Eng | Sub Eng 11FrYkT  28 / 0   3.17 GB   2019-09-28 20:54 
   Битва за Землю / Captive State (2019) Remux 1080p Ukr/Eng | Sub Eng antik_2008  17 / 1   30.33 GB   2019-09-27 18:04 
   Битва за Землю / Captive State (2019) 1080p Ukr/Eng | Sub Eng staf777  30 / 0   11.04 GB   2019-09-27 16:32 
   Битва за Землю / Captive State (2019) Ukr/Eng igor911  42 / 1   1.46 GB   2019-09-27 09:22 
   Битва за Землю / Captive State (2019) AVC Ukr/Eng | Sub Eng 11FrYkT  115 / 1   1.86 GB   2019-09-27 07:56 
unbreakable04 
Новенький


З нами з: 21.11.12
Востаннє: 16.11.19
Повідомлень: 6

2019-10-01 10:02  
Цікавий фільм в стилі Half-Life 2. Рекомендую любителям наукової фантастики + теми тоталітаризму. Чимось нагадує Район №9, хоча це звичайно дуже різні фільми. Єдине що фінал зкомканий, не дають, так би мовити, насолодитися моментом, але й так зрозуміло чим завершився.
Neolo 
Свій


З нами з: 13.11.10
Востаннє: 18.11.19
Повідомлень: 96

2019-10-03 00:41  

Створено роздачу на DC++ хабі Толока (сід "Схованка-1" 24/7)

Магніт (для клієнта Eiskalt - CTRL+I): magnet:?xt=urn:tree:tiger:SV6ODG22AV7ZNVBZS6M6NO7NG2QQ2JTF6UXBULA&xl=7120434655&dn=Captive+State+(2019)++1080p+H.265+%5BUKR_ENG%5D+%5BHurtom%5D.
Або CTRL+S в клієнті і виконати пошук за хешом чи безпосередньо за іменем файла.

Інтерактивний чат, шари та роздачі. Тестовий проект. Як приєднатися: https://toloka.to/t103590

Ваш часовий пояс: GMT + 2 Години

Нова тема   Відповісти