2012 / 2012 (2009) 1080p H.265 Ukr/Eng | Sub Eng

Нові коментарі

Нова тема   Відповісти
Автор Повідомлення
Anonymous 







2019-09-28 00:42  
2012 / 2012 (2009) 1080p H.265 Ukr/Eng | Sub Eng

2012 / 2012 (2009) 1080p H.265 Ukr/Eng | Sub Eng


Жанр: екшн, пригодницький, фантастика
Країна: США
Кінокомпанія: Columbia Pictures Corporation, Centropolis Entertainment, Farewell Productions
Режисер: Роланд Еммеріх / Roland Emmerich
Актори: Джон К'юсак / John Cusack, Аманда Піт / Amanda Peet, Чіветель Еджіофор / Chiwetel Ejiofor, Тенді Ньютон / Thandie Newton, Олівер Плат / Oliver Platt, Том МакКарті / Tom McCarthy, Вуді Гарельсон / Woody Harrelson, Денні Ґловер / Danny Glover, Ліам Джеймс / Liam James, Морґан Лілі / Morgan Lily, Беатріс Роузен / Beatrice Rosen та інші.

Сюжет:
Згідно з календарем індіанців Майя, в 2012 році планети сонячної системи опиняться на одній лінії, що призведе до глобальних природних катаклізмів: сильні землетруси, цунамі і виверження вулканів перетворять країни і цілі континенти в руїни. Нещодавно вчені підтвердили, що цей міф може стати реальністю...

Тривалість: 02:37:49
Якість:

Відео:
кодек: H.265 (HEVC)
розмір кадру: 1920 x 800
бітрейт: 7 488 кб/с
бітова глибина: 10 біт

Увага! Перед завантаженням переконайтесь, що ваш пристрій відтворення (та/або ПЗ) підтримує H.265 (HEVC)

Аудіо # 1:
мова: українська
переклад: професійний дубльований
кодек: AC-3 5.1
бітрейт: 448 кб/с

Аудіо # 2:
мова: англійська
переклад: оригінал
кодек: AC-3 5.1
бітрейт: 640 кб/с

Субтитри # 1: (Forced)
мова: українська
тип: програмні (м'які)
формат: *.srt

Субтитри # 2-3: (Forced, Full)
мова: англійська
тип: програмні (м'які)
формат: *.srt


Info
Код:
General
Unique ID                                : 147192482201126672362646967865805302483 (0x6EBC3DAC03B89589323B1CCF9BD2EAD3)
Complete name                            : 2012 (2009) 1080p H.265 [UKR_ENG] [Hurtom].
Format                                   :
Format version                           : Version 4
File size                                : 9.46 GiB
Duration                                 : 2 h 37 min
Overall bit rate                         : 8 578 kb/s
Movie name                               : 2012 / 2012 (2009)
Encoded date                             : UTC 2019-09-27 06:44:56
Writing application                      : v20.0.0 ('I Am The Sun') 64-bit
Writing library                          : libebml v1.3.5 + v1.4.8
Cover                                    : Yes
Attachments                              : cover.jpg

Video
ID                                       : 1
Format                                   : HEVC
Format/Info                              : High Efficiency Video Coding
Format profile                           : Main [email protected]@High
Codec ID                                 : V_MPEGH/ISO/HEVC
Duration                                 : 2 h 37 min
Bit rate                                 : 7 488 kb/s
Width                                    : 1 920 pixels
Height                                   : 800 pixels
Display aspect ratio                     : 2.40:1
Frame rate mode                          : Constant
Frame rate                               : 23.976 (24000/1001) FPS
Color space                              : YUV
Chroma subsampling                       : 4:2:0
Bit depth                                : 10 bits
Bits/(Pixel*Frame)                       : 0.203
Stream size                              : 8.25 GiB (87%)
Title                                    : 2012 / 2012 (2009)
Writing library                          : x265 3.1+11-de920e0a3183:[Windows][clang 8.0.1][64 bit] 10bit
Encoding settings                        : cpuid=1111039 / frame-threads=9 / numa-pools=8 / wpp / no-pmode / no-pme / no-psnr / no-ssim / log-level=3 / input-csp=1 / input-res=1920x800 / interlace=0 / total-frames=0 / level-idc=41 / high-tier=1 / uhd-bd=0 / ref=5 / allow-non-conformance / no-repeat-headers / annexb / aud / no-hrd / info / hash=0 / no-temporal-layers / no-open-gop / min-keyint=23 / keyint=240 / gop-lookahead=0 / bframes=10 / b-adapt=2 / b-pyramid / bframe-bias=0 / rc-lookahead=25 / lookahead-slices=4 / scenecut=40 / radl=0 / no-splice / no-intra-refresh / ctu=32 / min-cu-size=8 / rect / amp / max-tu-size=32 / tu-inter-depth=4 / tu-intra-depth=4 / limit-tu=0 / rdoq-level=2 / dynamic-rd=0.00 / no-ssim-rd / signhide / no-tskip / nr-intra=0 / nr-inter=0 / no-constrained-intra / no-strong-intra-smoothing / max-merge=5 / limit-refs=3 / limit-modes / me=3 / subme=7 / merange=57 / temporal-mvp / no-hme / weightp / weightb / no-analyze-src-pics / deblock=-3:-3 / no-sao / no-sao-non-deblock / rd=6 / no-early-skip / no-rskip / no-fast-intra / no-tskip-fast / no-cu-lossless / no-b-intra / no-splitrd-skip / rdpenalty=0 / psy-rd=2.00 / psy-rdoq=1.00 / no-rd-refine / no-lossless / cbqpoffs=0 / crqpoffs=0 / rc=crf / crf=20.0 / qcomp=0.65 / qpstep=4 / stats-write=0 / stats-read=0 / vbv-maxrate=50000 / vbv-bufsize=50000 / vbv-init=0.9 / crf-max=30.0 / crf-min=0.0 / ipratio=1.40 / pbratio=1.30 / aq-mode=3 / aq-strength=1.00 / no-cutree / zone-count=0 / no-strict-cbr / qg-size=32 / no-rc-grain / qpmax=69 / qpmin=0 / no-const-vbv / sar=1 / overscan=0 / videoformat=5 / range=0 / colorprim=1 / transfer=1 / colormatrix=1 / chromaloc=0 / display-window=0cll=0,0 / min-luma=0 / max-luma=1023 / log2-max-poc-lsb=8 / vui-timing-info / vui-hrd-info / slices=1 / no-opt-qp-pps / no-opt-ref-list-length-pps / no-multi-pass-opt-rps / scenecut-bias=0.05 / no-opt-cu-delta-qp / aq-motion / no-hdr / no-hdr-opt / no-dhdr10-opt / no-idr-recovery-sei / analysis-reuse-level=5 / scale-factor=0 / refine-intra=0 / refine-inter=0 / refine-mv=0 / refine-ctu-distortion=0 / no-limit-sao / ctu-info=0 / no-lowpass-dct / refine-analysis-type=0 / copy-pic=1 / max-ausize-factor=1.0 / no-dynamic-refine / no-single-sei / no-hevc-aq / no-svt / no-field / qp-adaptation-range=1.00
Language                                 : English
Default                                  : Yes
Forced                                   : No
Color range                              : Limited
Color primaries                          : BT.709
Transfer characteristics                 : BT.709
Matrix coefficients                      : BT.709

Audio #1
ID                                       : 2
Format                                   : AC-3
Format/Info                              : Audio Coding 3
Commercial name                          : Dolby Digital
Codec ID                                 : A_AC3
Duration                                 : 2 h 37 min
Bit rate mode                            : Constant
Bit rate                                 : 448 kb/s
Channel(s)                               : 6 channels
Channel layout                           : L R C LFE Ls Rs
Sampling rate                            : 48.0 kHz
Frame rate                               : 31.250 FPS (1536 SPF)
Bit depth                                : 16 bits
Compression mode                         : Lossy
Stream size                              : 505 MiB (5%)
Title                                    : / 5.1 Ch / 448 kbps / ПД / Blu-Ray / Neva Film
Language                                 : Ukrainian
Service kind                             : Complete Main
Default                                  : Yes
Forced                                   : Yes

Audio #2
ID                                       : 3
Format                                   : AC-3
Format/Info                              : Audio Coding 3
Commercial name                          : Dolby Digital
Codec ID                                 : A_AC3
Duration                                 : 2 h 37 min
Bit rate mode                            : Constant
Bit rate                                 : 640 kb/s
Channel(s)                               : 6 channels
Channel layout                           : L R C LFE Ls Rs
Sampling rate                            : 48.0 kHz
Frame rate                               : 31.250 FPS (1536 SPF)
Bit depth                                : 16 bits
Compression mode                         : Lossy
Stream size                              : 722 MiB (7%)
Title                                    : / 5.1 Ch / 640 kbps / Original
Language                                 : English
Service kind                             : Complete Main
Default                                  : No
Forced                                   : No

Text #1
ID                                       : 4
Format                                   : UTF-8
Codec ID                                 : S_TEXT/UTF8
Codec ID/Info                            : UTF-8 Plain Text
Duration                                 : 1 h 31 min
Bit rate                                 : 0 b/s
Count of elements                        : 3
Stream size                              : 101 Bytes (0%)
Title                                    : Forced
Language                                 : Ukrainian
Default                                  : Yes
Forced                                   : Yes

Text #2
ID                                       : 5
Format                                   : UTF-8
Codec ID                                 : S_TEXT/UTF8
Codec ID/Info                            : UTF-8 Plain Text
Duration                                 : 2 h 12 min
Bit rate                                 : 2 b/s
Count of elements                        : 80
Stream size                              : 2.48 KiB (0%)
Title                                    : Forced
Language                                 : English
Default                                  : No
Forced                                   : No

Text #3
ID                                       : 6
Format                                   : UTF-8
Codec ID                                 : S_TEXT/UTF8
Codec ID/Info                            : UTF-8 Plain Text
Duration                                 : 2 h 28 min
Bit rate                                 : 55 b/s
Count of elements                        : 1917
Stream size                              : 59.9 KiB (0%)
Title                                    : Full
Language                                 : English
Default                                  : No
Forced                                   : No

Menu
00:00:00.000                             : :00:00:00.000
00:01:17.994                             : :00:01:17.994
00:02:09.336                             : :00:02:09.337
00:03:08.479                             : :00:03:08.479
00:04:57.422                             : :00:04:57.422
00:05:47.180                             : :00:05:47.180
00:07:25.194                             : :00:07:25.194
00:10:43.351                             : :00:10:43.351
00:12:41.761                             : :00:12:41.761
00:14:26.448                             : :00:14:26.448
00:18:18.680                             : :00:18:18.680
00:25:39.079                             : :00:25:39.079
00:30:49.472                             : :00:30:49.472
00:36:10.501                             : :00:36:10.501
00:38:53.706                             : :00:38:53.706
00:42:18.994                             : :00:42:18.994
00:44:44.014                             : :00:44:44.014
00:49:08.070                             : :00:49:08.070
00:52:17.092                             : :00:52:17.092
00:56:50.907                             : :00:56:50.907
00:58:01.102                             : :00:58:01.102
01:00:09.689                             : :01:00:09.689
01:03:31.390                             : :01:03:31.390
01:07:17.241                             : :01:07:17.241
01:10:08.203                             : :01:10:08.204
01:13:48.090                             : :01:13:48.090
01:24:19.429                             : :01:24:19.429
01:29:10.303                             : :01:29:10.303
01:32:07.813                             : :01:32:07.813
01:33:38.195                             : :01:33:38.195
01:42:48.245                             : :01:42:48.245
01:48:10.317                             : :01:48:10.317
01:56:41.744                             : :01:56:41.744
01:59:40.047                             : :01:59:40.047
02:06:50.686                             : :02:06:50.686
02:09:12.911                             : :02:09:12.911
02:09:48.280                             : :02:09:48.280
02:13:22.369                             : :02:13:22.369
02:23:25.305                             : :02:23:25.305
Світлини




Джерело: &
Особиста оцінка: 5 - позіхав


 Трекер:    Зареєстрований   

Завантажити / скачати фільм українською



відео для новачків



 Зареєстрований:   2019-09-28 00:42
 Розмір:   9.46 GB 
 Оцінка фільму:   9.8/10 (Голосів: 10)
   
Інші релізи
   2012 / 2012 (2009) AVC Ukr/Eng | Sub Eng Sando7  7 / 0   3.52 GB   2019-03-03 16:39 
   2012 / 2012 (2009) 1080p | Open Matte Ukr/Eng | Sub Eng staf777  3 / 0   10.5 GB   2018-04-03 17:16 
   2012 / 2012 (2009) AVC Drool  6 / 0   2.15 GB   2011-07-26 17:11 
   2012 / 2012 (2009) Ukr/Eng | Sub Eng MutuLI  5 / 0   2.92 GB   2011-01-08 11:36 
   2012 / 2012 (2009) 720p Ukr/Rus/Eng | Sub Rus/Eng kszitadel  2 / 0   9.74 GB   2010-02-01 21:57 
   2012 / 2012 (2009) 1080p Ukr/Eng bbuzzy  2 / 0   15.43 GB   2010-01-28 13:19 
Ваш часовий пояс: GMT + 2 Години

Нова тема   Відповісти