Суддя / The Judge (2014) [Open Matte] 1080p Ukr/Eng | Sub Ukr/Eng

Нові коментарі

Нова тема   Відповісти
Автор Повідомлення
Anonymous 







2019-09-28 00:38  
Суддя / The Judge (2014) [Open Matte] 1080p Ukr/Eng | Sub Ukr/Eng

Суддя / The Judge (2014) [Open Matte] 1080p Ukr/Eng | Sub Ukr/Eng


Жанр: драма
Країна: США
Кінокомпанія: Warner Bros., Big Kid Pictures, Team Downey
Режисер: Девід Добкін / David Dobkin
Актори: Роберт Дауні мол. / Robert Downey Jr., Віра Фарміга / Vera Farmiga, Лейтон Містер / Leighton Meester, Біллі Боб Торнтон / Billy Bob Thornton, Вінсент Д`Онофріо / Vincent D'Onofrio, Декс Шепард / Dax Shepard, Роберт Дювалл / Robert Duvall та інші

Сюжет:
Адвокат великого міста, Генк Палмер, повертається додому, де його батька, суддю міста, підозрюють у вбивстві. Після довгої відсутності у житті рідних, Генк знову возз'єднується з родиною та починає розслідування.

Тривалість: 02:21:27
Якість: [Open Matte]

Відео:
кодек:
розмір кадру: 1920 x 1080
бітрейт: 5 120 кб/с

Аудіо # 1:
мова: українська
переклад: професійний дубльований
кодек: AC-3 5.1
бітрейт: 384 кб/с

Аудіо # 2:
мова: англійська
переклад: оригінал
кодек: 5.1
бітрейт: 1510 кб/с

Аудіо # 3:
мова: англійська
переклад:
кодек: AC-3 2.0
бітрейт: 192 кб/с

Субтитри # 1-2: (Forced, Full)
мова: українська
тип: програмні (м'які)
формат: *.srt

Субтитри # 3-5: (Full, SDH, SDH-Colored)
мова: англійська
тип: програмні (м'які)
формат: *.srt


Info
Код:
General
Unique ID                                : 222801342034954996180803141582477202709 (0xA79DFA45CB5EB5101CEE37E7BAB61515)
Complete name                            : The Judge (2014) [Open Matte] 1080p [UKR_ENG] [Hurtom].
Format                                   :
Format version                           : Version 4
File size                                : 6.90 GiB
Duration                                 : 2 h 21 min
Overall bit rate                         : 6 984 kb/s
Movie name                               : Суддя / The Judge (2014)
Encoded date                             : UTC 2019-09-27 07:52:30
Writing application                      : v20.0.0 ('I Am The Sun') 64-bit
Writing library                          : libebml v1.3.5 + v1.4.8
Cover                                    : Yes
Attachments                              : Cover.jpg

Video
ID                                       : 1
Format                                   : AVC
Format/Info                              : Advanced Video Codec
Format profile                           : [email protected]
Format settings                          : CABAC / 4 Ref Frames
Format settings, CABAC                   : Yes
Format settings, Reference frames        : 4 frames
Codec ID                                 : V_MPEG4/ISO/AVC
Duration                                 : 2 h 21 min
Bit rate                                 : 5 120 kb/s
Width                                    : 1 920 pixels
Height                                   : 1 080 pixels
Display aspect ratio                     : 16:9
Frame rate mode                          : Constant
Frame rate                               : 23.976 (24000/1001) FPS
Color space                              : YUV
Chroma subsampling                       : 4:2:0
Bit depth                                : 8 bits
Scan type                                : Progressive
Bits/(Pixel*Frame)                       : 0.103
Stream size                              : 4.84 GiB (70%)
Title                                    : Суддя / The Judge (2014)
Writing library                          : core 142
Encoding settings                        : cabac=1 / ref=3 / deblock=1:0:0 / analyse=0x3:0x113 / me=hex / subme=7 / psy=1 / psy_rd=1.00:0.00 / mixed_ref=1 / me_range=16 / chroma_me=1 / trellis=1 / 8x8dct=1 / cqm=0 / deadzone=21,11 / fast_pskip=1 / chroma_qp_offset=-2 / threads=84 / lookahead_threads=8 / sliced_threads=0 / nr=0 / decimate=1 / interlaced=0 / bluray_compat=0 / constrained_intra=0 / bframes=6 / b_pyramid=2 / b_adapt=1 / b_bias=0 / direct=1 / weightb=1 / open_gop=0 / weightp=2 / keyint=50 / keyint_min=26 / scenecut=0 / intra_refresh=0 / rc_lookahead=40 / rc=2pass / mbtree=1 / bitrate=5120 / ratetol=1.0 / qcomp=0.60 / qpmin=0 / qpmax=69 / qpstep=4 / cplxblur=20.0 / qblur=0.5 / vbv_maxrate=7680 / vbv_bufsize=20480 / nal_hrd=none / filler=0 / ip_ratio=1.40 / aq=1:1.00
Language                                 : English
Default                                  : Yes
Forced                                   : Yes

Audio #1
ID                                       : 2
Format                                   : AC-3
Format/Info                              : Audio Coding 3
Commercial name                          : Dolby Digital
Codec ID                                 : A_AC3
Duration                                 : 2 h 21 min
Bit rate mode                            : Constant
Bit rate                                 : 384 kb/s
Channel(s)                               : 6 channels
Channel layout                           : L R C LFE Ls Rs
Sampling rate                            : 48.0 kHz
Frame rate                               : 31.250 FPS (1536 SPF)
Bit depth                                : 16 bits
Compression mode                         : Lossy
Stream size                              : 389 MiB (5%)
Title                                    : / 5.1 Ch / 384 kbps / ПД / DVD
Language                                 : Ukrainian
Service kind                             : Complete Main
Default                                  : Yes
Forced                                   : Yes

Audio #2
ID                                       : 3
Format                                   :
Format/Info                              : Digital Theater Systems
Codec ID                                 : A_DTS
Duration                                 : 2 h 21 min
Bit rate mode                            : Constant
Bit rate                                 : 1 509 kb/s
Channel(s)                               : 6 channels
Channel layout                           : C L R Ls Rs LFE
Sampling rate                            : 48.0 kHz
Frame rate                               : 93.750 FPS (512 SPF)
Bit depth                                : 16 bits
Compression mode                         : Lossy
Stream size                              : 1.49 GiB (22%)
Title                                    : / 5.1 Ch / 1509 kbps / Original
Language                                 : English
Default                                  : No
Forced                                   : No

Audio #3
ID                                       : 4
Format                                   : AC-3
Format/Info                              : Audio Coding 3
Commercial name                          : Dolby Digital
Codec ID                                 : A_AC3
Duration                                 : 2 h 21 min
Bit rate mode                            : Constant
Bit rate                                 : 192 kb/s
Channel(s)                               : 2 channels
Channel layout                           : L R
Sampling rate                            : 48.0 kHz
Frame rate                               : 31.250 FPS (1536 SPF)
Bit depth                                : 16 bits
Compression mode                         : Lossy
Stream size                              : 194 MiB (3%)
Title                                    : Commentary by Director David Dobkin
Language                                 : English
Service kind                             : Complete Main
Default                                  : No
Forced                                   : No

Text #1
ID                                       : 5
Format                                   : UTF-8
Codec ID                                 : S_TEXT/UTF8
Codec ID/Info                            : UTF-8 Plain Text
Duration                                 : 2 h 20 min
Bit rate                                 : 1 b/s
Count of elements                        : 23
Stream size                              : 1.15 KiB (0%)
Title                                    : Forced
Language                                 : Ukrainian
Default                                  : Yes
Forced                                   : Yes

Text #2
ID                                       : 6
Format                                   : UTF-8
Codec ID                                 : S_TEXT/UTF8
Codec ID/Info                            : UTF-8 Plain Text
Duration                                 : 2 h 14 min
Bit rate                                 : 102 b/s
Count of elements                        : 1851
Stream size                              : 101 KiB (0%)
Title                                    : Full
Language                                 : Ukrainian
Default                                  : No
Forced                                   : No

Text #3
ID                                       : 7
Format                                   : UTF-8
Codec ID                                 : S_TEXT/UTF8
Codec ID/Info                            : UTF-8 Plain Text
Duration                                 : 2 h 11 min
Bit rate                                 : 68 b/s
Count of elements                        : 1874
Stream size                              : 66.3 KiB (0%)
Title                                    : Full
Language                                 : English
Default                                  : No
Forced                                   : No

Text #4
ID                                       : 8
Format                                   : UTF-8
Codec ID                                 : S_TEXT/UTF8
Codec ID/Info                            : UTF-8 Plain Text
Duration                                 : 2 h 11 min
Bit rate                                 : 72 b/s
Count of elements                        : 2004
Stream size                              : 69.9 KiB (0%)
Title                                    : SDH
Language                                 : English
Default                                  : No
Forced                                   : No

Text #5
ID                                       : 9
Format                                   : UTF-8
Codec ID                                 : S_TEXT/UTF8
Codec ID/Info                            : UTF-8 Plain Text
Duration                                 : 2 h 11 min
Bit rate                                 : 85 b/s
Count of elements                        : 2004
Stream size                              : 82.5 KiB (0%)
Title                                    : SDH-Colored
Language                                 : English
Default                                  : No
Forced                                   : No
Світлини




Джерело: &
Особиста оцінка: 7 - моїй подрузі не сподобалося


 Трекер:    Зареєстрований   

Завантажити / скачати фільм українською



відео для новачків



 Зареєстрований:   2019-09-28 00:38
 Розмір:   6.9 GB 
 Оцінка фільму:   9.8/10 (Голосів: 4)
   
Інші релізи
   Суддя / The Judge (2014) 1080p Ukr/Eng | Sub Ukr/Eng 11FrYkT  3 / 0   15.05 GB   2015-08-18 21:41 
   Суддя / The Judge (2014) 720p Ukr/Eng | Sub Ukr/Eng 11FrYkT  5 / 0   6.74 GB   2015-08-18 21:32 
   Суддя / The Judge (2014) AVC patriot2305  2 / 0   2.18 GB   2015-08-18 21:17 
   Суддя / The Judge (2014) AngryBirdsUA  3 / 0   2.19 GB   2015-08-18 19:37 
   Суддя / The Judge (2014) AVC Ukr/Eng | Sub Ukr/Eng BASTERD-94  3 / 0   2.66 GB   2015-04-17 21:30 
Ваш часовий пояс: GMT + 2 Години

Нова тема   Відповісти