Людина диких прерій / Man in the Wilderness (1971) Remux 1080p Eng | Sub Ukr/Eng

Нові коментарі

Нова тема   Відповісти
Автор Повідомлення
kryk-v.ya. 
Попереджень: 1
Попереджень: 1 


З нами з: 14.02.14
Востаннє: 03.12.20
Повідомлень: 2348

2019-09-27 18:05  
Людина диких прерій / Man in the Wilderness (1971) Remux 1080p Eng | Sub Ukr/Eng

Людина диких прерій / Man in the Wilderness (1971) Remux 1080p Eng | Sub Ukr/Eng

«He was left for dead. He would not forget»


Жанр: вестерн
Країна: США



Кінокомпанія: Limbridge, Wilderness Films
Режисер: Річард С. Сараф'ян
Актори: Річард Харріс, Джон Хастон, Прунелла Рансомі, Персі Герберт, Генрі Вілкоксон, Норман Россінгтон, Денніс Уотерман.

Сюжет:
Фільм про провідника групи піонерів, які вивчали північний захід Сполучених Штатів в 1820 році. Провідник був роздертий ведмедем і залишений компаньйонами вмирати. Він зміг вижити, щоб вистежити своїх колишніх товаришів ...


Тривалість: 01:45:00
Якість: Remux 1080p
Відео:
кодек:
розмір кадру: 1920 х 1080
бітрейт: 34.9 Mbіт/с

Аудіо:
мова: англійська
переклад: оригінал
кодек: -HD MA 2.0
бітрейт: 1834 кб/с

Субтитри:
мова: українська
тип: програмні (м'які) | (власне редагування.)
формат: *.srt

Субтитри:
мова: англійська
тип: програмні (м'які) | SDH
формат: *.srt
Info
General
Unique ID : 173328704335851204203383019762021302523 (0x8265E4E9A69005E218E88D06A80800FB)
Complete name : E:\Man in the Wilderness (1971) Remux 1080p (Hurtom).
Format :
Format version : Version 4 / Version 2
File size : 26.9 GiB
Duration : 1 h 45 min
Overall bit rate mode : Variable
Overall bit rate : 36.7 Mb/s
Encoded date : UTC 2019-09-27 17:02:58
Writing application : v25.0.0 ('Prog Noir') 64-bit
Writing library : libebml v1.3.6 + v1.4.9
Cover : Yes
Attachments : cover.jpg

Video
ID : 1
Format : AVC
Format/Info : Advanced Video Codec
Format profile : [email protected]
Format settings : CABAC / 4 Ref Frames
Format settings, CABAC : Yes
Format settings, ReFrames : 4 frames
Codec ID : V_MPEG4/ISO/AVC
Duration : 1 h 45 min
Bit rate mode : Variable
Bit rate : 34.9 Mb/s
Maximum bit rate : 40.0 Mb/s
Width : 1 920 pixels
Height : 1 080 pixels
Display aspect ratio : 16:9
Frame rate mode : Constant
Frame rate : 23.976 (24000/1001) FPS
Color space : YUV
Chroma subsampling : 4:2:0
Bit depth : 8 bits
Scan type : Progressive
Bits/(Pixel*Frame) : 0.702
Stream size : 25.6 GiB (95%)
Default : Yes
Forced : No

Audio
ID : 2
Format : XLL
Format/Info : Digital Theater Systems
Commercial name : -HD Master Audio
Codec ID : A_DTS
Duration : 1 h 45 min
Bit rate mode : Variable
Bit rate : 1 814 kb/s
Channel(s) : 2 channels
Channel layout : L R
Sampling rate : 48.0 kHz
Frame rate : 93.750 FPS (512 SPF)
Bit depth : 24 bits
Compression mode : Lossless
Stream size : 1.33 GiB (5%)
Title : Original
Language : English
Default : Yes
Forced : No

Text #1
ID : 3
Format : UTF-8
Codec ID : S_TEXT/UTF8
Codec ID/Info : UTF-8 Plain Text
Duration : 1 h 42 min
Bit rate : 24 b/s
Count of elements : 241
Stream size : 18.1 KiB (0%)
Title : full
Language : Ukrainian
Default : Yes
Forced : No

Text #2
ID : 4
Format : UTF-8
Codec ID : S_TEXT/UTF8
Codec ID/Info : UTF-8 Plain Text
Duration : 1 h 44 min
Bit rate : 16 b/s
Count of elements : 454
Stream size : 12.9 KiB (0%)
Title : SDH
Language : English
Default : No
Forced : No

Menu
00:00:00.000 : en:00:00:00.000 / en:Розділ 01
00:10:16.518 : en:00:10:16.518
00:17:27.449 : en:00:17:27.449
00:24:38.546 : en:00:24:38.546
00:35:46.296 : en:00:35:46.296
00:46:15.633 : en:00:46:15.633
00:54:23.120 : en:00:54:23.120
01:04:47.911 : en:01:04:47.911
01:12:41.426 : en:01:12:41.426
01:22:57.250 : en:01:22:57.250
01:32:22.481 : en:01:32:22.481
01:42:41.933 : en:01:42:41.933
01:45:00.169 : en:01:45:00.169


Джерело: &
Особиста оцінка: 10 - без зайвих вагань рекомендую всім!


Золотий реліз (завантажене не впливає на рейтинг)
 Трекер:    Зареєстрований   

Завантажити / скачати фільм українською



відео для новачків



 Зареєстрований:   2019-09-27 19:48
 Розмір:   26.92 GB 
 Оцінка фільму:   10/10 (Голосів: 5)
   
bot 
робот


З нами з: 30.09.07
Востаннє: 26.05.05
Повідомлень: 26437

2019-09-27 18:06  
Тему перенесено з Фільми до форуму Анонси релізів


kryk-v.ya.

bot 
робот


З нами з: 30.09.07
Востаннє: 26.05.05
Повідомлень: 26437

2019-09-27 19:48  
Тему перенесено з Анонси релізів до форуму Фільми


kryk-v.ya.

deemonmeister 
Свій


З нами з: 24.02.15
Востаннє: 02.12.20
Повідомлень: 50

2020-02-02 20:02  
Шикарний фільм. ДіКапріо така роль та сценарій навіть не снилися =) Є ще книжка (до того ж основана на реальних! подіях)- дуже раджу прочитати.
Ваш часовий пояс: GMT + 2 Години

Нова тема   Відповісти