Анабель 3 / Annabelle Comes Home (2019) Remux 1080p Ukr/Eng | Sub Eng

Нові коментарі

Нова тема   Відповісти
Автор Повідомлення
Anonymous 







2019-09-27 11:56  
Анабель 3 / Annabelle Comes Home (2019) Remux 1080p Ukr/Eng | Sub Eng


«Вона прийде по кожного»


Жанр: детектив, жахи, трилер
Країна: США



Кінокомпанія:] Atomic Monster, New Line Cinema, The Safran Company
Режисер: Гарі Доберман
Актори: МакКенна Грейс, Медісон Ісман, Віра Фарміга, Патрік Вілсон, Майкл Патрік МакГілл

Сюжет:
Бажаючи утримати Анабель від нових вбивств, демонологи Лоррейн і Ед Воррени закривають одержиму ляльку в кімнаті артефактів у себе вдома, помістивши її за освячене скло і заручившись благословенням священика. Але ніч кошмарів наближається, коли Анабель пробуджує всіх злих духів в кімнаті, ціллю яких стає 10-річна дочка Ворренів Джуді та її друзі.


Тривалість: 01:46:05
Якість: Remux 1080p

Відео:
кодек:
розмір кадру: 1920x1080
бітрейт: ~26900 кб/с

Аудіо # 1:
мова: українська
переклад: професійний дубльований | студія Postmodern
кодек: 5.1
бітрейт: 384 кб/с
Інформація про дубляж
Перекладач: Катерина Щепковська
Режисер дубляжу: Катерина Брайковська
Звукорежисер: Андрій Славинський
Звукорежисер перезапису: Максим Корнелюк
Ролі дублювали: Дарина Муращенко, Антоніна Якушева, Софія Лозіна, Олег Лепенець, Наталя Ярошенко, Олександр Солодкий та інші.

Фільм дубльовано компанією Postmodern.
Аудіо # 2:
мова: англійська
переклад: оригінал
кодек: 5.1
бітрейт: 640 кб/с

Аудіо # 3:
мова: англійська
переклад: оригінал
кодек: TrueHD + Atmos 7.1
бітрейт: 3364 кб/с

Субтитри (Forced):
мова: українська
тип: програмні (м'які)
формат: *.srt

Субтитри:
мова: англійська
тип: програмні (м'які)
формат: *.srt
Info
Код:

General
Complete name                            : Annabelle Comes Home (2019) Remux 1080p [UKR_ENG] [Video_Hurtom].
Format                                   :
Format version                           : Version 4
File size                                : 23.1 GiB
Duration                                 : 1 h 46 min
Overall bit rate mode                    : Variable
Overall bit rate                         : 31.1 Mb/s
Movie name                               : Annabelle Comes Home (2019) Remux 1080p [UKR_ENG] [Video_Hurtom]
Encoded date                             : UTC 2019-09-27 10:31:03
Writing application                      : v30.1.0 ('Forever And More') 64-bit
Writing library                          : libebml v1.3.6 + v1.4.9
Cover                                    : Yes
Attachments                              : cover.jpg

Video
ID                                       : 1
Format                                   : AVC
Format/Info                              : Advanced Video Codec
Format profile                           : [email protected]
Format settings                          : CABAC / 4 Ref Frames
Format settings, CABAC                   : Yes
Format settings, RefFrames               : 4 frames
Codec ID                                 : V_MPEG4/ISO/AVC
Duration                                 : 1 h 46 min
Bit rate mode                            : Variable
Bit rate                                 : 26.9 Mb/s
Maximum bit rate                         : 29.0 Mb/s
Width                                    : 1 920 pixels
Height                                   : 1 080 pixels
Display aspect ratio                     : 16:9
Frame rate mode                          : Constant
Frame rate                               : 23.976 (24000/1001) FPS
Color space                              : YUV
Chroma subsampling                       : 4:2:0
Bit depth                                : 8 bits
Scan type                                : Progressive
Bits/(Pixel*Frame)                       : 0.540
Stream size                              : 19.9 GiB (86%)
Language                                 : English
Default                                  : Yes
Forced                                   : No

Audio #1
ID                                       : 2
Format                                   : AC-3
Format/Info                              : Audio Coding 3
Commercial name                          : Dolby Digital
Codec ID                                 : A_AC3
Duration                                 : 1 h 46 min
Bit rate mode                            : Constant
Bit rate                                 : 192 kb/s
Channel(s)                               : 2 channels
Channel layout                           : L R
Sampling rate                            : 48.0 kHz
Frame rate                               : 31.250 FPS (1536 SPF)
Bit depth                                : 16 bits
Compression mode                         : Lossy
Stream size                              : 146 MiB (1%)
Title                                    : , 6 ch, 384 Кбт/с
Language                                 : Ukrainian
Service kind                             : Complete Main
Default                                  : Yes
Forced                                   : No

Audio #2
ID                                       : 3
Format                                   : AC-3
Format/Info                              : Audio Coding 3
Commercial name                          : Dolby Digital
Codec ID                                 : A_AC3
Duration                                 : 1 h 46 min
Bit rate mode                            : Constant
Bit rate                                 : 640 kb/s
Channel(s)                               : 6 channels
Channel layout                           : L R C LFE Ls Rs
Sampling rate                            : 48.0 kHz
Frame rate                               : 31.250 FPS (1536 SPF)
Bit depth                                : 16 bits
Compression mode                         : Lossy
Stream size                              : 486 MiB (2%)
Title                                    : , 6 ch, 640 Кбт/с
Language                                 : English
Service kind                             : Complete Main
Default                                  : No
Forced                                   : No

Audio #3
ID                                       : 4
Format                                   : MLP FBA 16-ch
Format/Info                              : Meridian Lossless Packing FBA with 16-channel presentation
Commercial name                          : Dolby TrueHD with Dolby Atmos
Codec ID                                 : A_TRUEHD
Duration                                 : 1 h 46 min
Bit rate mode                            : Variable
Bit rate                                 : 3 364 kb/s
Maximum bit rate                         : 6 009 kb/s
Channel(s)                               : 8 channels
Channel layout                           : L R C LFE Ls Rs Lb Rb
Sampling rate                            : 48.0 kHz
Frame rate                               : 1 200.000 FPS (40 SPF)
Compression mode                         : Lossless
Stream size                              : 2.49 GiB (11%)
Title                                    : TrueHD, 8 ch, 3364 Кбт/с
Language                                 : English
Default                                  : No
Forced                                   : No
Number of dynamic objects                : 15
Bed channel count                        : 1 channel
Bed channel configuration                : LFE

Text #1
ID                                       : 5
Format                                   : UTF-8
Codec ID                                 : S_TEXT/UTF8
Codec ID/Info                            : UTF-8 Plain Text
Duration                                 : 1 h 42 min
Bit rate                                 : 2 b/s
Count of elements                        : 38
Stream size                              : 2.09 KiB (0%)
Title                                    : Forced
Language                                 : Ukrainian
Default                                  : No
Forced                                   : No

Text #2
ID                                       : 6
Format                                   : UTF-8
Codec ID                                 : S_TEXT/UTF8
Codec ID/Info                            : UTF-8 Plain Text
Duration                                 : 1 h 40 min
Bit rate                                 : 43 b/s
Count of elements                        : 1237
Stream size                              : 32.2 KiB (0%)
Title                                    : SDH
Language                                 : English
Default                                  : No
Forced                                   : No

Menu
00:00:00.000                             : en:00:00:00.000
00:07:57.560                             : en:00:07:57.560
00:15:34.225                             : en:00:15:34.225
00:24:02.066                             : en:00:24:02.066
00:32:57.017                             : en:00:32:57.017
00:43:00.411                             : en:00:43:00.411
00:52:29.688                             : en:00:52:29.688
01:02:07.599                             : en:01:02:07.599
01:06:14.179                             : en:01:06:14.179
01:15:05.334                             : en:01:15:05.334
01:21:45.025                             : en:01:21:45.025
01:30:22.250                             : en:01:30:22.250
01:39:58.618                             : en:01:39:58.618
Скріншоти




За аудіо 5.1 | 384 Kbps | Itunes | Ukr подяка трекеру : 0day
Джерело:
Особиста оцінка: 0 - не дивився



Золотий реліз (завантажене не впливає на рейтинг)
 Трекер:    Зареєстрований   

Завантажити / скачати фільм українською



відео для новачків



 Зареєстрований:   2019-09-27 18:05
 Розмір:   23.06 GB 
 Оцінка фільму:   8.7/10 (Голосів: 6)
   
Інші релізи
   Анабель 3 / Annabelle Comes Home (2019) 720p Ukr/Eng | Sub Eng 11FrYkT  1 / 1   4.62 GB   2019-09-29 10:06 
   Анабель 3 / Annabelle Comes Home (2019) AVC Ukr/Eng | Sub Eng 11FrYkT  7 / 0   1.9 GB   2019-09-23 14:54 
   Анабель 3 / Annabelle Comes Home (2019) Ukr/Eng antik_2008  1 / 0   1.87 GB   2019-09-23 13:14 
   Анабель 3 / Annabelle Comes Home (2019) 1080p Ukr/Eng | Sub Eng antik_2008  3 / 0   8.08 GB   2019-09-23 07:26 
bot 
робот


З нами з: 30.09.07
Востаннє: 26.05.05
Повідомлень: 22459

2019-09-27 18:05  
Тему перенесено з Анонси релізів до форуму Фільми в HD


antik_2008

Blitzkrieg 
Новенький


З нами з: 21.02.10
Востаннє: 10.11.19
Повідомлень: 15

2019-09-28 10:25  
Панове! То станьте ж хтось на роздачу.
Neolo 
Свій


З нами з: 13.11.10
Востаннє: 11.11.19
Повідомлень: 96

2019-10-18 00:56  

Роздачу створено на DC++ хабі Толока (сід "Схованка-1" 24/7)

В клієнті і виконати пошук за іменем файла, або відкрити файл-лист Схованка-1.

Інтерактивний чат, шари та роздачі. Тестовий проект. Як приєднатися: https://toloka.to/t103590

Ваш часовий пояс: GMT + 2 Години

Нова тема   Відповісти