Битва за Землю / Captive State (2019) Remux 1080p Ukr/Eng | Sub Eng

Нові коментарі

Нова тема   Відповісти
Автор Повідомлення
Anonymous 







2019-09-27 11:15  
Битва за Землю / Captive State (2019) Remux 1080p Ukr/Eng | Sub Eng



Альтернативний постер


«10 років тому вони забрали нашу планету. Сьогодні ми повернемо її!»



Жанр: драма, трилер, фантастика
Країна: США



Кінокомпанія: DreamWorks, Amblin Partners, Lightfuse & Gettaway
Режисер: Руперт Ваятт / Rupert Wyatt
Актори: Джон Гудмен / John Goodman, Віра Фарміґа / Vera Farmiga, Ештон Сандерс / Ashton Sanders, Джонатан Мейджерс / Jonathan Majors, Кевін Данн / Kevin Dunn, Джеймс Ренсон / James Ransone, Алан Рак / Alan Ruck, Маделін Брюер / Madeline Brewer, Мешін Ган Келлі (Колсон Бейкер) / Machine Gun Kelly, Кевін Джей О'Коннор / Kevin J. O'Connor, Кікі Лейн / KiKi Layne та інші.

Сюжет:
Вже 10 років Земля захоплена прибульцями. Частина населення стала колаборантами, але частина продовжує чинити опір, веде боротьбу. Очільник поліції Чикаго має лише добу, аби впіймати лідера повстанців Фенікса, інакше місто не врятувати.
Офіційний український трейлер:


Рейтинг MPAA: PG-13 - дітям до 13 років перегляд не бажаний
Вікова категорія: 16+


Тривалість: 01:49:34
Якість: Remux 1080p

Відео:
кодек:
розмір кадру: 1920х1080
бітрейт: 35.5 мб/с

Аудіо # 1:
мова: українська
переклад: професійний дубльований | студія ААА-sound
кодек: 2.0 (стерео)
бітрейт: 192 кб/с
Інформація про дубляж
Перекладач: Віталій Жук
Редактор: Юлія Когут
Режисер дубляжу та звукорежисер перезапису: Олександр Єфімов
Ролі дублювали: Андрій Федінчик, Євген Пашин, Катерина Сергєєва, Дмитро Гаврилов, Катерина Буцька, Дмитро Завадський, Антоніна Якушева, Юрій Ребрик, Михайло Кришталь, Катерина Брайковська, Ярослав Чорненький, Ольга Радчук, Віктор Григор'єв, Павло Скороходько, Андрій Альохін, Дмитро Терещук, Михайло Тишин та інші.

Фільм дубльовано студією ААА-sound у 2019 році на замовлення компанії UFD.
Аудіо # 2:
мова: англійська
переклад: оригінал
кодек: 5.1
бітрейт: 448 кб/с

Аудіо # 3:
мова: англійська
переклад: оригінал
кодек: -HD MA 5.1
бітрейт: 3452 кб/с

Субтитри: (Full, SDH)
мова: англійська
тип: програмні (м'які)
формат: *.srt
Info
General
Complete name : Captive State (2019) Remux 1080p [UKR_ENG] [Video_Hurtom].
Format :
Format version : Version 4
File size : 30.3 GiB
Duration : 1 h 49 min
Overall bit rate mode : Variable
Overall bit rate : 39.6 Mb/s
Movie name : Captive State (2019) Remux 1080p [UKR_ENG] [Video_Hurtom]
Encoded date : UTC 2019-09-27 10:45:02
Writing application : v30.1.0 ('Forever And More') 64-bit
Writing library : libebml v1.3.6 + v1.4.9
Cover : Yes
Attachments : cover.jpg

Video
ID : 1
Format : AVC
Format/Info : Advanced Video Codec
Format profile : [email protected]
Format settings : CABAC / 4 Ref Frames
Format settings, CABAC : Yes
Format settings, RefFrames : 4 frames
Format settings, GOP : M=3, N=12
Codec ID : V_MPEG4/ISO/AVC
Duration : 1 h 49 min
Bit rate mode : Variable
Bit rate : 35.5 Mb/s
Maximum bit rate : 39.6 Mb/s
Width : 1 920 pixels
Height : 1 080 pixels
Display aspect ratio : 16:9
Frame rate mode : Constant
Frame rate : 23.976 (24000/1001) FPS
Color space : YUV
Chroma subsampling : 4:2:0
Bit depth : 8 bits
Scan type : Progressive
Bits/(Pixel*Frame) : 0.715
Stream size : 27.2 GiB (90%)
Language : English
Default : Yes
Forced : No

Audio #1
ID : 2
Format : AC-3
Format/Info : Audio Coding 3
Commercial name : Dolby Digital
Codec ID : A_AC3
Duration : 1 h 49 min
Bit rate mode : Constant
Bit rate : 192 kb/s
Channel(s) : 2 channels
Channel layout : L R
Sampling rate : 48.0 kHz
Frame rate : 31.250 FPS (1536 SPF)
Bit depth : 16 bits
Compression mode : Lossy
Stream size : 150 MiB (0%)
Title : , 2 ch, 192 Кбт/с
Language : Ukrainian
Service kind : Complete Main
Default : Yes
Forced : No

Audio #2
ID : 3
Format : AC-3
Format/Info : Audio Coding 3
Commercial name : Dolby Digital
Codec ID : A_AC3
Duration : 1 h 49 min
Bit rate mode : Constant
Bit rate : 448 kb/s
Channel(s) : 6 channels
Channel layout : L R C LFE Ls Rs
Sampling rate : 48.0 kHz
Frame rate : 31.250 FPS (1536 SPF)
Bit depth : 16 bits
Compression mode : Lossy
Stream size : 351 MiB (1%)
Title : , 6 ch, 448 Кбт/с
Language : English
Service kind : Complete Main
Default : No
Forced : No

Audio #3
ID : 4
Format : XLL
Format/Info : Digital Theater Systems
Commercial name : -HD Master Audio
Codec ID : A_DTS
Duration : 1 h 49 min
Bit rate mode : Variable
Bit rate : 3 452 kb/s
Channel(s) : 6 channels
Channel layout : C L R Ls Rs LFE
Sampling rate : 48.0 kHz
Frame rate : 93.750 FPS (512 SPF)
Bit depth : 24 bits
Compression mode : Lossless
Stream size : 2.64 GiB (9%)
Title : -HD MA, 6 ch, 3452 Кбт/с
Language : English
Default : No
Forced : No

Text #1
ID : 5
Format : UTF-8
Codec ID : S_TEXT/UTF8
Codec ID/Info : UTF-8 Plain Text
Duration : 1 h 44 min
Bit rate : 35 b/s
Count of elements : 803
Stream size : 27.5 KiB (0%)
Title : Full
Language : English
Default : No
Forced : No

Text #2
ID : 6
Format : UTF-8
Codec ID : S_TEXT/UTF8
Codec ID/Info : UTF-8 Plain Text
Duration : 1 h 45 min
Bit rate : 46 b/s
Count of elements : 1123
Stream size : 35.6 KiB (0%)
Title : SDH
Language : English
Default : No
Forced : No

Menu
00:00:00.000 : en:Chapter 01
00:06:25.385 : en:Chapter 02
00:12:34.671 : en:Chapter 03
00:18:46.000 : en:Chapter 04
00:24:21.377 : en:Chapter 05
00:26:55.113 : en:Chapter 06
00:32:44.504 : en:Chapter 07
00:38:27.597 : en:Chapter 08
00:43:36.948 : en:Chapter 09
00:47:17.626 : en:Chapter 10
00:52:14.465 : en:Chapter 11
01:00:01.598 : en:Chapter 12
01:06:42.373 : en:Chapter 13
01:11:29.577 : en:Chapter 14
01:15:18.222 : en:Chapter 15
01:19:40.859 : en:Chapter 16
01:23:32.049 : en:Chapter 17
01:31:46.543 : en:Chapter 18
01:38:12.011 : en:Chapter 19
01:45:00.711 : en:Chapter 20
Скріншоти
Джерело: &
Особиста оцінка: 5 - позіхав


Золотий реліз (завантажене не впливає на рейтинг)
 Трекер:    Зареєстрований   

Завантажити / скачати фільм українською



відео для новачків



 Зареєстрований:   2019-09-27 18:04
 Розмір:   30.33 GB 
 Оцінка фільму:   7.3/10 (Голосів: 17)
   
Інші релізи
bot 
робот


З нами з: 30.09.07
Востаннє: 26.05.05
Повідомлень: 23421

2019-09-27 18:04  
Тему перенесено з Анонси релізів до форуму Фільми в HD


antik_2008

MakRA 
VIP


З нами з: 10.11.18
Востаннє: 29.02.20
Повідомлень: 825

2019-09-28 21:35  
Подивився сьогодні. Не скажу, щоб дуже вразив, але, так як не являюся фанатом Spider-Man"а, то великого вибору з нових фільмів не було)
Така собі фантастична мелодрама, раз глянути можна.

comixyar 
Новенький


З нами з: 07.03.12
Востаннє: 25.02.20
Повідомлень: 7

2019-10-28 09:40  
Ледве додивився
Ваш часовий пояс: GMT + 2 Години

Нова тема   Відповісти