Битва за Землю / Captive State (2019) Ukr/Eng

Нові коментарі

Нова тема   Відповісти
Автор Повідомлення
Anonymous 







2019-09-27 09:03  
Битва за Землю / Captive State (2019) Ukr/Eng

Битва за Землю / Captive State (2019) Ukr/Eng
Альтернативний постер



Жанр: драма, трилер, фантастика
Країна: США



Кінокомпанія: DreamWorks, Amblin Partners, Lightfuse & Gettaway
Режисер: Руперт Ваятт / Rupert Wyatt
Актори: Джон Гудмен / John Goodman, Віра Фарміґа / Vera Farmiga, Ештон Сандерс / Ashton Sanders, Джонатан Мейджерс / Jonathan Majors, Кевін Данн / Kevin Dunn, Джеймс Ренсон / James Ransone, Алан Рак / Alan Ruck, Маделін Брюер / Madeline Brewer, Мешін Ган Келлі (Колсон Бейкер) / Machine Gun Kelly, Кевін Джей О'Коннор / Kevin J. O'Connor, Кікі Лейн / KiKi Layne та інші.

Сюжет:
Вже 10 років Земля захоплена прибульцями. Частина населення стала колаборантами, але частина продовжує чинити опір, веде боротьбу. Очільник поліції Чикаго має лише добу, аби впіймати лідера повстанців Фенікса, інакше місто не врятувати.
Офіційний український трейлер:


Рейтинг MPAA: PG-13 - дітям до 13 років перегляд не бажаний
Вікова категорія: 16+

Тривалість: 01:49:34
Якість:

Відео:
кодек:
розмір кадру: 720х304
бітрейт: 1511 кб/с

Аудіо # 1:
мова: українська
переклад: професійний дубльований | студія ААА-sound
кодек: 2.0 (стерео)
бітрейт: 192 кб/с
Інформація про дубляж
Перекладач: Віталій Жук
Редактор: Юлія Когут
Режисер дубляжу та звукорежисер перезапису: Олександр Єфімов
Ролі дублювали: Андрій Федінчик, Євген Пашин, Катерина Сергєєва, Дмитро Гаврилов, Катерина Буцька, Дмитро Завадський, Антоніна Якушева, Юрій Ребрик, Михайло Кришталь, Катерина Брайковська, Ярослав Чорненький, Ольга Радчук, Віктор Григор'єв, Павло Скороходько, Андрій Альохін, Дмитро Терещук, Михайло Тишин та інші.

Фільм дубльовано студією ААА-sound у 2019 році на замовлення компанії UFD.
Аудіо # 2:
мова: англійська
переклад: оригінал
кодек: 2.0
бітрейт: 192 кб/с
Info
Код:
General
Complete name               : Captive State (2019) [Ukr,Eng] [Hurtom].avi
Format                      : AVI
Format/Info                 : Audio Video Interleave
File size                   : 1.46 GiB
Duration                    : 1 h 49 min
Overall bit rate            : 1 909 kb/s
Movie name                  : Битва за Землю / Captive State (2019) [Ukr,Eng] [Hurtom]
Writing application         : VirtualDubModUkr 1.5.10.2 (build 2542/release)
Writing library             : VirtualDubMod build 2542/release

Video
ID                          : 0
Format                      : MPEG-4 Visual
Format profile              : Advanced [email protected]
Format settings             : BVOP1 / Custom Matrix
Format settings, BVOP       : 1
Format settings, QPel       : No
Format settings, GMC        : No warppoints
Format settings, Matrix     : Custom
Codec ID                    :
Codec ID/Hint               :
Duration                    : 1 h 49 min
Bit rate                    : 1 511 kb/s
Width                       : 720 pixels
Height                      : 304 pixels
Display aspect ratio        : 2.35:1
Frame rate                  : 23.976 (24000/1001) FPS
Color space                 : YUV
Chroma subsampling          : 4:2:0
Bit depth                   : 8 bits
Scan type                   : Progressive
Compression mode            : Lossy
Bits/(Pixel*Frame)          : 0.288
Stream size                 : 1.16 GiB (79%)
Writing library             : 67

Audio #1
ID                          : 1
Format                      : AC-3
Format/Info                 : Audio Coding 3
Commercial name             : Dolby Digital
Codec ID                    : 2000
Duration                    : 1 h 49 min
Bit rate mode               : Constant
Bit rate                    : 192 kb/s
Channel(s)                  : 2 channels
Channel layout              : L R
Sampling rate               : 48.0 kHz
Frame rate                  : 31.250 FPS (1536 SPF)
Compression mode            : Lossy
Stream size                 : 150 MiB (10%)
Alignment                   : Split across interleaves
Interleave, duration        : 42  ms (1.00 video frame)
Interleave, preload duratio : 500  ms
Title                       : Ukr Dub [AAA-sound, stereo]
Service kind                : Complete Main

Audio #2
ID                          : 2
Format                      : AC-3
Format/Info                 : Audio Coding 3
Commercial name             : Dolby Digital
Codec ID                    : 2000
Duration                    : 1 h 49 min
Bit rate mode               : Constant
Bit rate                    : 192 kb/s
Channel(s)                  : 2 channels
Channel layout              : L R
Sampling rate               : 48.0 kHz
Frame rate                  : 31.250 FPS (1536 SPF)
Compression mode            : Lossy
Stream size                 : 150 MiB (10%)
Alignment                   : Split across interleaves
Interleave, duration        : 42  ms (1.00 video frame)
Interleave, preload duratio : 500  ms
Service kind                : Complete Main



Джерело: &


 Трекер:    Зареєстрований   

Завантажити / скачати фільм українською



відео для новачків



 Зареєстрований:   2019-09-27 10:22
 Розмір:   1.46 GB 
 Оцінка фільму:   8.4/10 (Голосів: 36)
 ЗАЛИШАЙТЕСЬ ЯКОМОГА ДОВШЕ НА РОЗДАЧІ! ЗАВАНТАЖИВ САМ - ДАЙ ЗАВАНТАЖИТИ ІНШИМ!
   
Інші релізи
kolyan201086 
Новенький


З нами з: 02.10.13
Востаннє: 18.10.19
Повідомлень: 13

2019-09-29 18:53  
З самого початку зрозуміло хто "ПЕРШИЙ", творці намагалися заплутати сюжет, хоч для якоїсь загадковості, але..., плутали, плутали та не заплутали. Дивився з дрімотою, бо нуднувато. Не зрозумів навіщо вигадувати такі шпигунські пристрасті, якщо "таргани" слідкували за всим дистанційно. Я маю на увазі, щось типу звіту, чи що повинні були надати люди іншопланетянам, чи вони, просто хотіли подивитися в очі тому, хто їх підірве. Ніякої битви, ніяких спецефектів. Для 2024 року застарі автомобілі, які випущені до 2014. Ввесь цифровий зв'язок вимкнено, а GPS навігація з відслідковуванням маячків працює,... Корочше - МАЯЧНЯ.
andriy_nv 
VIP


З нами з: 27.06.08
Востаннє: 18.10.19
Повідомлень: 933

2019-10-18 17:37  
ніяке
Ваш часовий пояс: GMT + 2 Години

Нова тема   Відповісти