Пролітаючи над гніздом зозулі / One Flew Over the Cuckoo's Nest (1975) AVC Ukr | Sub Ukr/Eng

Нові коментарі

Нова тема   Відповісти
Автор Повідомлення
Maters 
Відео Гуртом - підтримка та поширення
Відео Гуртом - підтримка та поширення


З нами з: 27.03.12
Востаннє: 23.10.19
Повідомлень: 1758

2019-09-26 21:10  
Пролітаючи над гніздом зозулі / One Flew Over the Cuckoo's Nest (1975) AVC Ukr | Sub Ukr/Eng

Пролітаючи над гніздом зозулі / One Flew Over the Cuckoo's Nest (1975) AVC Ukr | Sub Ukr/Eng


Жанр: драма, психологічний
Країна: США

Top 250: 17

Кінокомпанія: Fantasy Films
Режисер: Мілош Форман
Актори: Джек Ніколсон, Луїс Флетчер, Денні Де Віто та ін.

Сюжет:
Нестаріючий шедевр в історії світового кінематографу, що має 5 найпрестижніших Оскарів: за кращий фільм, за кращу чоловічу за жіночу головні ролі, режисуру та кращий адаптований сценарій, а також 28 інших нагород та 11 номінацій.
Екранізація одноіменного роману Кена Кізі, яка стала культовим фільмом неперевершеного Мілаша Формана.
Оригінальним є рішення режисера задіяти у нескладних ролях справжніх пацієнтів психіатрічної лікарні з Орегону, де і проходили зйомки фільму. Але головна родзинка фільму - це блискуча гра головних героїв. Гру Джека Ніколсона критики вважають геніальною, а роль Макмерфі - однією з кращих у його кар'єрі.
Кращий фільм, що відкриває глядачу зміст справжньої свободи - свободи духу.


Тривалість: 02:13:42
Якість:
Відео:
кодек:
розмір кадру: 1024 х 576
бітрейт: 1850 кб/с

Аудіо:
мова: українська
переклад: багатоголосий закадровий (псевдодубляж на 7 голосів)
кодек: 5.1
бітрейт: 448 кб/с
Озвучено ТО "Цікава Ідея" на замовлення "Гуртом"

Субтитри:
мова: українська
тип: програмні (м'які)
формат: *.srt

Субтитри:
мова: англійська
тип: програмні (м'які)
формат: *.srt
Скріншоти





Info
General
Unique ID : 172569172931744441937618433976749427897 (0x81D39D1F8E09BAEC73E63151ABD28CB9)
Complete name : D:\Downloaded\Ріпи\Нова папка\One Flew Over The Cuckoos Nest (1975) AVC [Ukr, Sub Ukr,Eng] [Hurtom].
Format :
Format version : Version 4
File size : 2.15 GiB
Duration : 2 h 13 min
Overall bit rate : 2 300 kb/s
Movie name : Пролітаючи над гніздом зозулі / One Flew Over the Cuckoo's Nest (1975) AVC Ukr | Sub Ukr/Eng
Encoded date : UTC 2019-09-26 17:49:29
Writing application : v35.0.0 ('All The Love In The World') 64-bit
Writing library : libebml v1.3.9 + v1.5.2
Cover : Yes
Attachments : cover.jpg

Video
ID : 1
Format : AVC
Format/Info : Advanced Video Codec
Format profile : [email protected]
Format settings : CABAC / 14 Ref Frames
Format settings, CABAC : Yes
Format settings, Reference : 14 frames
Codec ID : V_MPEG4/ISO/AVC
Duration : 2 h 13 min
Bit rate : 1 850 kb/s
Width : 1 024 pixels
Height : 576 pixels
Display aspect ratio : 16:9
Frame rate mode : Constant
Frame rate : 23.976 (24000/1001) FPS
Color space : YUV
Chroma subsampling : 4:2:0
Bit depth : 8 bits
Scan type : Progressive
Bits/(Pixel*Frame) : 0.131
Stream size : 1.73 GiB (80%)
Writing library : core 157 r2935 545de2f
Encoding settings : cabac=1 / ref=14 / deblock=1:-1:-1 / analyse=0x3:0x133 / me=umh / subme=10 / psy=1 / psy_rd=1.00:0.15 / mixed_ref=1 / me_range=24 / chroma_me=1 / trellis=2 / 8x8dct=1 / cqm=0 / deadzone=21,11 / fast_pskip=1 / chroma_qp_offset=-3 / threads=18 / lookahead_threads=3 / sliced_threads=0 / nr=0 / decimate=1 / interlaced=0 / bluray_compat=0 / constrained_intra=0 / bframes=8 / b_pyramid=2 / b_adapt=2 / b_bias=0 / direct=3 / weightb=1 / open_gop=0 / weightp=2 / keyint=240 / keyint_min=24 / scenecut=40 / intra_refresh=0 / rc_lookahead=60 / rc=2pass / mbtree=1 / bitrate=1850 / ratetol=1.0 / qcomp=0.60 / qpmin=0 / qpmax=69 / qpstep=4 / cplxblur=20.0 / qblur=0.5 / vbv_maxrate=62500 / vbv_bufsize=78125 / nal_hrd=none / filler=0 / ip_ratio=1.40 / aq=1:1.00
Default : Yes
Forced : No
Color range : Limited
Color primaries : BT.709
Transfer characteristics : BT.709
Matrix coefficients : BT.709

Audio
ID : 2
Format : AC-3
Format/Info : Audio Coding 3
Commercial name : Dolby Digital
Codec ID : A_AC3
Duration : 2 h 13 min
Bit rate mode : Constant
Bit rate : 448 kb/s
Channel(s) : 6 channels
Channel layout : L R C LFE Ls Rs
Sampling rate : 48.0 kHz
Frame rate : 31.250 FPS (1536 SPF)
Bit depth : 16 bits
Compression mode : Lossy
Delay relative to video : -21 ms
Stream size : 428 MiB (19%)
Language : Ukrainian
Service kind : Complete Main
Default : Yes
Forced : Yes

Text #1
ID : 3
Format : UTF-8
Codec ID : S_TEXT/UTF8
Codec ID/Info : UTF-8 Plain Text
Duration : 2 h 6 min
Bit rate : 96 b/s
Count of elements : 1580
Stream size : 89.3 KiB (0%)
Title : One Flew Over The Cuckoos Nest (1975) 1080p.Tr_05.Sub-UKR.[HURTOM] by HURTOM.srt
Language : Ukrainian
Default : Yes
Forced : Yes

Text #2
ID : 4
Format : UTF-8
Codec ID : S_TEXT/UTF8
Codec ID/Info : UTF-8 Plain Text
Duration : 2 h 12 min
Bit rate : 63 b/s
Count of elements : 1772
Stream size : 61.6 KiB (0%)
Title : One Flew Over The Cuckoos Nest (1975) 1080p.Tr_06.Sub-Eng.[HURTOM] by DiGen.srt
Language : English
Default : No
Forced : No
Джерело:
Реліз-група:
Особиста оцінка: 9 - сильний фільм


Авторський реліз (завантажувати можна без реєстрації)
 Трекер:    Зареєстрований   

Завантажити / скачати фільм українською



відео для новачків



 Зареєстрований:   2019-09-26 21:10
 Розмір:   2.15 GB 
 Оцінка фільму:   9.8/10 (Голосів: 6)
   
qwasasqw 
Поважний учасник


З нами з: 01.01.11
Востаннє: 23.10.19
Повідомлень: 232

2019-09-26 21:13  
Один з найкращих фільмів з Ніклсоном.Саме буде привід переглянути в avc)Дякую.
Ваш часовий пояс: GMT + 2 Години

Нова тема   Відповісти