Тінь / The Shadow (1994) 1080p 4xUkr/Eng | Sub Eng

Нові коментарі

Нова тема   Відповісти
Автор Повідомлення
Anonymous 







2019-09-26 20:45  
Тінь / The Shadow (1994) 1080p 4xUkr/Eng | Sub Eng

Тінь / The Shadow (1994) 1080p 4xUkr/Eng | Sub Eng
Обкладинки:





Жанр: фентезі, бойовик, кримінальний, пригодницький, детектив
Країна: США



Кінокомпанія: Universal Pictures, Bregman/Baer Productions
Режисер: Расселл Малкахі / Russell Mulcahy
Актори: Алек Болдвін / Alec Baldwin, Джон Лон / John Lone, Пенелопа Енн Міллер / Penelope Ann Miller, Ієн МакКеллен / Ian McKellen, Пітер Бойл / Peter Boyle, Джонатан Вінтерс / Jonathan Winters, Тім Каррі / Tim Curry, Джозеф Махер / Joseph Maher, Джон Капелос / John Kapelos, Макс Райт / Max Wright та інші.

Сюжет:
Тибетські монахи направили на шлях праведний злодія і короля опіуму Кренстона, закликавши його служити добру. Від нині він повинен боротися зі злом в найстрашнішому місті світу - Нью-Йорку. Там він бореться зі всякою нечистю, отримавши від суспільства прізвисько "Тінь". Герой фільму вступає в смертельне єдиноборство з посланцем глибини віків — нащадком Чингізхана, що хоче завоювати весь світ.


Рейтинг MPAA: PG-13 - дітям до 13 років перегляд не бажаний
Вікова категорія: 12+

Тривалість: 01:47:30
Якість: 1080p [ріп від HDReactor, джерело: US Collector's Edition Blu-ray - має кращу якість відео, більший бітрейт та більше наповнення кадру]
Порівняння якості Американського та німецького трансферів:

Німецький блурей 01:47:25<------------->Американський блурей 01:47:30


Бітрейт німецького трансферу:


Бітрейт американського трансферу:


детальніше:
https://caps-a-holic.com/c.php?a=1&x=764&y=113&d1=8183&d2=8181&s1=78069&s2=78036&l=1&i=3&go=1
Відео:
кодек:
розмір кадру: 1920x1080
бітрейт: 13,3 Мб/с

Аудіо # 1:
мова: українська
переклад: багатоголосий закадровий
кодек: 2.0
бітрейт: 192 кб/с
Інформація про озвучення
Студія "Хлопушка" на замовлення телеканалу "1+1"

Ролі озвучили: Владислав Пупков, Віталій Дорошенко, Анатолій Пашнін, Олена Бліннікова та ще два чоловічих.
Аудіо # 2: &
мова: українська
переклад: багатоголосий закадровий
кодек: 2.0
бітрейт: 192 кб/с
Інформація про озвучення
Студія "Мова" на замовлення телеканалу "Україна"

Ролі озвучили: Алек Болдвін — Михайло Кришталь, Микола Говор та інші.
Аудіо # 3:
мова: українська
переклад: багатоголосий закадровий
кодек: 2.0
бітрейт: 192 кб/с
Інформація про озвучення
Ролі озвучили: Дмитро Терещук, Євген Пашин, Олександр Солодкий та один жіночий
Аудіо # 4:
мова: українська
переклад: багатоголосий закадровий
кодек: 2.0
бітрейт: 192 кб/с
Інформація про озвучення
Студія "Так Треба Продакшн" на замовлення телеканалу "ICTV"

Ролі озвучили: Алек Болдвін — Олег Стальчук, Джон Лон — Юрій Гребельник, Роман Семисал та один жіночий
Аудіо # 5:
мова: англійська
переклад: оригінал
кодек: 5.1
бітрейт: 448 кб/с

Субтитри # 1-2:
мова: англійська (повні, SDH)
тип: програмні (м'які)
формат: *.srt

Збережено оригінальні розділи, як на Blu-ray
Info та log
Код:

Complete name               : The Shadow (1994) [4xUkr,Eng sub.Eng] 1080p [Hurtom].
Format                      :
Format version              : Version 4
File size                   : 10.9 GiB
Duration                    : 1 h 47 min
Overall bit rate            : 14.5 Mb/s
Movie name                  : Тінь / The Shadow (1994) [4xUkr,Eng sub.Eng] 1080p [Hurtom]
Encoded date                : UTC 2019-09-26 18:01:02
Writing application         : v37.0.0 ('Leave It') 64-bit
Writing library             : libebml v1.3.9 + v1.5.2
Cover                       : Yes
Attachments                 : cover.jpg

Video
ID                          : 1
Format                      : AVC
Format/Info                 : Advanced Video Codec
Format profile              : [email protected]
Format settings             : CABAC / 4 Ref Frames
Format settings, CABAC      : Yes
Format settings, Reference  : 4 frames
Codec ID                    : V_MPEG4/ISO/AVC
Duration                    : 1 h 47 min
Bit rate                    : 13.3 Mb/s
Width                       : 1 920 pixels
Height                      : 1 080 pixels
Display aspect ratio        : 16:9
Frame rate mode             : Constant
Frame rate                  : 23.976 (24000/1001) FPS
Color space                 : YUV
Chroma subsampling          : 4:2:0
Bit depth                   : 8 bits
Scan type                   : Progressive
Bits/(Pixel*Frame)          : 0.268
Stream size                 : 10.0 GiB (92%)
Title                       : Тінь / The Shadow (1994) 1080p [US Transfer] [HDReactor - ~V~]
Writing library             : core 148 r2694 3b70645
Encoding settings           : cabac=1 / ref=4 / deblock=1:-2:-2 / analyse=0x3:0x133 / me=umh / subme=11 / psy=1 / psy_rd=1.00:0.00 / mixed_ref=1 / me_range=32 / chroma_me=1 / trellis=2 / 8x8dct=1 / cqm=0 / deadzone=21,11 / fast_pskip=0 / chroma_qp_offset=-2 / threads=12 / lookahead_threads=1 / sliced_threads=0 / nr=0 / decimate=0 / interlaced=0 / bluray_compat=0 / constrained_intra=0 / bframes=10 / b_pyramid=2 / b_adapt=2 / b_bias=0 / direct=3 / weightb=1 / open_gop=0 / weightp=2 / keyint=240 / keyint_min=23 / scenecut=40 / intra_refresh=0 / rc=2pass / mbtree=0 / bitrate=13333 / ratetol=1.0 / qcomp=0.60 / qpmin=0 / qpmax=69 / qpstep=4 / cplxblur=20.0 / qblur=0.5 / ip_ratio=1.40 / pb_ratio=1.30 / aq=3:0.90
Language                    : English
Default                     : Yes
Forced                      : No

Audio #1
ID                          : 2
Format                      : AC-3
Format/Info                 : Audio Coding 3
Commercial name             : Dolby Digital
Codec ID                    : A_AC3
Duration                    : 1 h 47 min
Bit rate mode               : Constant
Bit rate                    : 192 kb/s
Channel(s)                  : 2 channels
Channel layout              : L R
Sampling rate               : 48.0 kHz
Frame rate                  : 31.250 FPS (1536 SPF)
Compression mode            : Lossy
Stream size                 : 147 MiB (1%)
Title                       : MVO [1+1] 2.0 192 Kbps
Language                    : Ukrainian
Service kind                : Complete Main
Default                     : Yes
Forced                      : Yes

Audio #2
ID                          : 3
Format                      : AC-3
Format/Info                 : Audio Coding 3
Commercial name             : Dolby Digital
Codec ID                    : A_AC3
Duration                    : 1 h 47 min
Bit rate mode               : Constant
Bit rate                    : 192 kb/s
Channel(s)                  : 2 channels
Channel layout              : L R
Sampling rate               : 48.0 kHz
Frame rate                  : 31.250 FPS (1536 SPF)
Compression mode            : Lossy
Stream size                 : 147 MiB (1%)
Title                       : MVO [Mova, TRK Ukraina] 2.0 192 Kbps
Language                    : Ukrainian
Service kind                : Complete Main
Default                     : No
Forced                      : No

Audio #3
ID                          : 4
Format                      : AC-3
Format/Info                 : Audio Coding 3
Commercial name             : Dolby Digital
Codec ID                    : A_AC3
Duration                    : 1 h 47 min
Bit rate mode               : Constant
Bit rate                    : 192 kb/s
Channel(s)                  : 2 channels
Channel layout              : L R
Sampling rate               : 48.0 kHz
Frame rate                  : 31.250 FPS (1536 SPF)
Compression mode            : Lossy
Stream size                 : 148 MiB (1%)
Title                       : MVO [Volia Cine+] 2.0 192 Kbps
Language                    : Ukrainian
Service kind                : Complete Main
Default                     : No
Forced                      : No

Audio #4
ID                          : 5
Format                      : AC-3
Format/Info                 : Audio Coding 3
Commercial name             : Dolby Digital
Codec ID                    : A_AC3
Duration                    : 1 h 47 min
Bit rate mode               : Constant
Bit rate                    : 192 kb/s
Channel(s)                  : 2 channels
Channel layout              : L R
Sampling rate               : 48.0 kHz
Frame rate                  : 31.250 FPS (1536 SPF)
Compression mode            : Lossy
Stream size                 : 147 MiB (1%)
Title                       : MVO [ICTV] 2.0 192 Kbps
Language                    : Ukrainian
Service kind                : Complete Main
Default                     : No
Forced                      : No

Audio #5
ID                          : 6
Format                      : AC-3
Format/Info                 : Audio Coding 3
Commercial name             : Dolby Digital
Codec ID                    : A_AC3
Duration                    : 1 h 47 min
Bit rate mode               : Constant
Bit rate                    : 448 kb/s
Channel(s)                  : 6 channels
Channel layout              : L R C LFE Ls Rs
Sampling rate               : 48.0 kHz
Frame rate                  : 31.250 FPS (1536 SPF)
Compression mode            : Lossy
Stream size                 : 345 MiB (3%)
Title                       : Original, 5.1 448 Kbps
Language                    : English
Service kind                : Complete Main
Default                     : No
Forced                      : No

Text #1
ID                          : 7
Format                      : UTF-8
Codec ID                    : S_TEXT/UTF8
Codec ID/Info               : UTF-8 Plain Text
Duration                    : 1 h 44 min
Bit rate                    : 41 b/s
Count of elements           : 943
Stream size                 : 31.9 KiB (0%)
Title                       : Eng Full
Language                    : English
Default                     : No
Forced                      : No

Text #2
ID                          : 8
Format                      : UTF-8
Codec ID                    : S_TEXT/UTF8
Codec ID/Info               : UTF-8 Plain Text
Duration                    : 1 h 38 min
Bit rate                    : 43 b/s
Count of elements           : 1133
Stream size                 : 31.4 KiB (0%)
Title                       : Eng SDH
Language                    : English
Default                     : No
Forced                      : No

Menu
00:00:00.000                : :Main Titles: The Butcher of Lhasa
00:08:21.959                : :The Weed of Crime
00:16:01.627                : :The Cobalt Club
00:22:49.868                : :The Coming of the Connection
00:28:55.984                : :The Bronzium Connection
00:33:52.697                : :The Call of Shiwan Khan
00:42:33.717                : :An Assault on the War Department
00:46:27.326                : :To Kill a Shadow
00:51:38.053                : :That Knife...
00:55:52.682                : :The Evil Within
01:00:34.213                : :The Shadow Submerged
01:09:25.786                : :The Shadow Strikes
01:13:57.182                : :Prisoner of the Phurba?
01:20:12.098                : :The Orb of Oblivian
01:31:10.798                : :Mirrors of the Mind
01:41:10.856                : :End Titles ("Original Sin")

Код:
[info]: frame I:1005 Avg QP:17.21 size:181011
[info]: frame P:30146 Avg QP:19.37 size:105881
[info]: frame B:123505 Avg QP:21.44 size: 59699



Джерело: &
Звукозапис з ТБ: Tanat13, dvorsky, drakon87, olgaya, Sando7.
Синхронізація звуку: taraskill1, robotron005.
Постер: realnitro, igor911; інформація про озвучення: Віктор.


Срібний реліз (на рейтинг впливає 50% завантаженого)
 Трекер:    Зареєстрований   

Завантажити / скачати фільм українською



відео для новачків



 Зареєстрований:   2019-09-26 21:16
 Розмір:   10.92 GB 
 Оцінка фільму:   10/10 (Голосів: 14)
 ЗАЛИШАЙТЕСЬ ЯКОМОГА ДОВШЕ НА РОЗДАЧІ! ЗАВАНТАЖИВ САМ - ДАЙ ЗАВАНТАЖИТИ ІНШИМ!
   
Інші релізи
   Тінь / The Shadow (1994) 4xUkr/Eng taraskill1  4 / 0   2.18 GB   2017-07-10 07:31 
   Тінь / The Shadow (1994) Remux 1080p 3xUkr/Eng | Sub Eng/Ger Deiv  3 / 0   18.65 GB   2017-01-28 13:06 
   Тінь / The Shadow [Fullscreen Edition] (1994) 3xUkr/Eng robotron005  2 / 0   2.33 GB   2013-09-19 14:56 
   Тінь / The Shadow (1994) 720p Ukr/Eng | Sub Eng Virake  1 / 0   11.17 GB   2013-02-20 02:33 
sci-fi 
Свій


З нами з: 16.10.13
Востаннє: 23.09.20
Повідомлень: 124

2020-09-04 20:40  
Чесно, давно збився з ліку, скільки разів дивився це кіно. Як на мене, чудовий, динамічний сюжет (точно не заснете), гарна гра акторів, спецефекти, Алек Болдвін у ролі головного героя дивиться неперевершено.
Що цікаво, фільм у свій час визнали комерційно невдалим ... , мабуть, звідси і занижений рейтинг на IMDB. Але цього зовсім не відчувається, як на мене він якісно відрізняється від більшості із цього жанру.

Особиста оцінка 8 / 10 - хто не бачив, однозначно раджу глянути!

Ваш часовий пояс: GMT + 2 Години

Нова тема   Відповісти