Всепереможне кохання / Аджай / Ajay / अजय (1996) 1080p Ukr/Hin

Нові коментарі

Нова тема   Відповісти
Автор Повідомлення
Anonymous 







2019-09-26 18:33  
Всепереможне кохання / Аджай / Ajay / अजय (1996) 1080p Ukr/Hin

Всепереможне кохання / Аджай / Ajay / अजय (1996) 1080p Ukr/Hin


Жанр: екшн, драма, мелодрама, музичний
Країна: Індія



Кінокомпанія: Shree Krishna International
Режисер: Суніл Даршан
Актори: Сані Деол, Каоішма Капур, Суредже Оберої, Кіран Кумар.

Сюжет:
Простий сільський хлопець Аджай закохується в дочку багатого і всесильного Такура. У серці його дочки Рами спалахує взаємне почуття, але батько нічого не хоче чути про весілля. Щоб раз і назавжди прибрати з дороги неугодного нареченого, Такур вирішує заховати Аджая до в'язниці. Але любляче серце не втримати за гратами. Аджай здійснює втечу ...


Тривалість: 02:26:58
Якість:
Відео:
кодек:
розмір кадру: 1920 х 1080
бітрейт: 2200 кб/с

Аудіо:1
мова: українська
переклад: багатоголосий закадровий | Тк КІТ
кодек: 2.0
бітрейт: 192 кб/с

Аудіо:2
мова: гінді
переклад: оригінал
кодек: 2.0
бітрейт: 126 кб/с
Info
Video
ID : 1
Format : AVC
Format/Info : Advanced Video Codec
Format profile : [email protected]
Format settings : CABAC / 3 Ref Frames
Format settings, CABAC : Yes
Format settings, Reference fra : 3 frames
Codec ID : V_MPEG4/ISO/AVC
Duration : 2 h 26 min
Bit rate : 2 200 kb/s
Width : 1 920 pixels
Height : 1 080 pixels
Display aspect ratio : 16:9
Frame rate mode : Constant
Frame rate : 25.000 FPS
Color space : YUV
Chroma subsampling : 4:2:0
Bit depth : 8 bits
Scan type : Progressive
Bits/(Pixel*Frame) : 0.042
Stream size : 2.26 GiB (87%)
Language : English
Default : Yes
Forced : No
Color range : Limited
Color primaries : BT.709
Transfer characteristics : BT.709
Matrix coefficients : BT.709

Audio #1
ID : 2
Format : AC-3
Format/Info : Audio Coding 3
Commercial name : Dolby Digital
Codec ID : A_AC3
Duration : 2 h 26 min
Bit rate mode : Constant
Bit rate : 192 kb/s
Channel(s) : 2 channels
Channel layout : L R
Sampling rate : 48.0 kHz
Frame rate : 31.250 FPS (1536 SPF)
Bit depth : 16 bits
Compression mode : Lossy
Stream size : 202 MiB (8%)
Language : Ukrainian
Service kind : Complete Main
Default : Yes
Forced : No

Audio #2
ID : 3
Format : LC
Format/Info : Advanced Audio Codec Low Complexity
Codec ID : A_AAC-2
Duration : 2 h 26 min
Bit rate : 126 kb/s
Channel(s) : 2 channels
Channel layout : L R
Sampling rate : 44.1 kHz
Frame rate : 43.066 FPS (1024 SPF)
Compression mode : Lossy
Stream size : 132 MiB (5%)
Language : Hindi
Default : No
Forced : No
Скріншоти






Джерело:


Срібний реліз (на рейтинг впливає 50% завантаженого)
 Трекер:    Зареєстрований   

Завантажити / скачати фільм українською



відео для новачків



 Зареєстрований:   2019-09-26 18:33
 Розмір:   2.59 GB 
 Оцінка фільму:   10/10 (Голосів: 1)
   
Інші релізи
Ваш часовий пояс: GMT + 2 Години

Нова тема   Відповісти