Чаклунка / Maleficent (2014) UHD Remux 4K 2160p HDR H.265 Ukr/Eng | Sub Eng

Нові коментарі

Нова тема   Відповісти
Автор Повідомлення
Anonymous 







2019-09-26 10:03  
Чаклунка / Maleficent (2014) UHD Remux 4K 2160p HDR H.265 Ukr/Eng | Sub Eng

Чаклунка / Maleficent (2014) UHD Remux 4K 2160p HDR H.265 Ukr/Eng | Sub Eng


Жанр: драма, пригодницький, сімейний, фентезі, екшн
Країна: США



Кінокомпанія: Walt Disney Pictures
Режисер: Роберт Стромберг
Актори: Анджеліна Джолі, Елль Феннінг, Джуно Темпл, Шарлто Коплі, Сем Райлі, Ханна Нью, Імелда Стонтон, Елла Пернелл, Брентон Туейтес, Джо Осмонд, Джеймі Сівес, Леслі Менвілл, Кеннет Кренем, Стівен Крі

Сюжет:
Юна чаклунка Малефісента вела відокремлене життя в зачарованому лісі, оточена казковими істотами, але одного разу все змінилося... В її світ вторглися люди, які принесли з собою руйнування і хаос, і Малефісенті довелося встати на захист своїх підданих, закликавши на допомогу могутні темні сили. У запалі боротьби Малефісента наклала страшне закляття на новонароджену дочку короля, прекрасну Аврору. Але, спостерігаючи за тим, як росте маленька принцеса, Малефісента починає сумніватися у правильності свого вчинку - адже, можливо, саме Аврора може вдихнути нове життя в чарівне лісове царство...


Тривалість: 01:37:48
Якість: UHD Remux 4K 2160p
Відео:
кодек: H.265 (HEVC)
розмір кадру: 3840x2160
бітрейт: 65,5 Мб/с
бітова глибина: 10 біт
кольоровий простір: BT.2020 (HDR)

Аудіо # 1:
мова: українська
переклад: професійний дубльований
кодек: 5.1
бітрейт: 1509 кб/с

Аудіо # 2:
мова: англійська
переклад: оригінал
кодек: 5.1
бітрейт: 640 кб/с

Аудіо # 3:
мова: англійська
переклад: оригінал
кодек: TrueHD + Atmos 7.1
бітрейт: 4824 кб/с

Субтитри:
мова: англійська
тип: програмні (м'які)
формат: *.srt
Info

General
Complete name : Maleficent (2014) UHD Remux 4K 2160p HDR H.265 (HEVC) [UKR_ENG].
Format :
Format version : Version 4
File size : 49.4 GiB
Duration : 1 h 37 min
Overall bit rate mode : Variable
Overall bit rate : 72.2 Mb/s
Movie name : Maleficent (2014) UHD Remux 4K 2160p HDR H.265 (HEVC) [UKR_ENG]
Encoded date : UTC 2019-09-26 06:29:10
Writing application : v30.1.0 ('Forever And More') 64-bit
Writing library : libebml v1.3.6 + v1.4.9

Video
ID : 1
Format : HEVC
Format/Info : High Efficiency Video Coding
Commercial name : HDR10
Format profile : Main [email protected]@High
Codec ID : V_MPEGH/ISO/HEVC
Duration : 1 h 37 min
Bit rate : 65.5 Mb/s
Width : 3 840 pixels
Height : 2 160 pixels
Display aspect ratio : 16:9
Frame rate mode : Constant
Frame rate : 23.976 (24000/1001) FPS
Color space : YUV
Chroma subsampling : 4:2:0 (Type 2)
Bit depth : 10 bits
Bits/(Pixel*Frame) : 0.329
Stream size : 44.6 GiB (90%)
Language : English
Default : Yes
Forced : No
Color range : Limited
Color primaries : BT.2020
Transfer characteristics : PQ
Matrix coefficients : BT.2020 non-constant
Mastering display color primaries : Display P3
Mastering display luminance : min: 0.0050 cd/m2, max: 4000 cd/m2
Maximum Content Light Level : 823 cd/m2
Maximum Frame-Average Light Level : 312 cd/m2

Audio #1
ID : 2
Format :
Format/Info : Digital Theater Systems
Codec ID : A_DTS
Duration : 1 h 37 min
Bit rate mode : Constant
Bit rate : 1 510 kb/s
Channel(s) : 6 channels
Channel layout : C L R Ls Rs LFE
Sampling rate : 48.0 kHz
Frame rate : 93.750 FPS (512 SPF)
Bit depth : 24 bits
Compression mode : Lossy
Stream size : 1.03 GiB (2%)
Title : , 6 ch, 1510 Кбт/с
Language : Ukrainian
Default : Yes
Forced : No

Audio #2
ID : 3
Format : AC-3
Format/Info : Audio Coding 3
Commercial name : Dolby Digital
Codec ID : A_AC3
Duration : 1 h 37 min
Bit rate mode : Constant
Bit rate : 640 kb/s
Channel(s) : 6 channels
Channel layout : L R C LFE Ls Rs
Sampling rate : 48.0 kHz
Frame rate : 31.250 FPS (1536 SPF)
Bit depth : 16 bits
Compression mode : Lossy
Stream size : 446 MiB (1%)
Title : , 6 ch, 640 Кбт/c
Language : English
Service kind : Complete Main
Default : No
Forced : No

Audio #3
ID : 4
Format : MLP FBA 16-ch
Format/Info : Meridian Lossless Packing FBA with 16-channel presentation
Commercial name : Dolby TrueHD with Dolby Atmos
Codec ID : A_TRUEHD
Duration : 1 h 37 min
Bit rate mode : Variable
Bit rate : 4 824 kb/s
Maximum bit rate : 7 926 kb/s
Channel(s) : 8 channels
Channel layout : L R C LFE Ls Rs Lb Rb
Sampling rate : 48.0 kHz
Frame rate : 1 200.000 FPS (40 SPF)
Compression mode : Lossless
Stream size : 3.28 GiB (7%)
Title : TrueHD, 8 ch, 4824 Кбт/c
Language : English
Default : No
Forced : No
Number of dynamic objects : 13
Bed channel count : 1 channel
Bed channel configuration : LFE

Text
ID : 5
Format : UTF-8
Codec ID : S_TEXT/UTF8
Codec ID/Info : UTF-8 Plain Text
Duration : 1 h 27 min
Bit rate : 30 b/s
Count of elements : 713
Stream size : 19.3 KiB (0%)
Title : Full
Language : English
Default : No
Forced : No

Menu
00:00:00.000 : en:00:00:00.000
00:03:00.597 : en:00:03:00.597
00:08:10.949 : en:00:08:10.949
00:14:00.757 : en:00:14:00.757
00:19:10.608 : en:00:19:10.608
00:25:59.057 : en:00:25:59.057
00:33:09.738 : en:00:33:09.738
00:38:30.808 : en:00:38:30.808
00:43:21.140 : en:00:43:21.140
00:46:56.105 : en:00:46:56.105
00:51:11.944 : en:00:51:11.944
00:54:18.797 : en:00:54:18.797
00:58:37.723 : en:00:58:37.723
01:01:58.048 : en:01:01:58.048
01:05:09.989 : en:01:05:09.989
01:09:56.776 : en:01:09:56.776
01:15:40.619 : en:01:15:40.619
01:17:43.659 : en:01:17:43.659
01:25:44.931 : en:01:25:44.931
01:28:38.647 : en:01:28:38.647
Скріншоти
Джерело: &
Особиста оцінка: 9 - давно не бачив настільки якісне кіно
За допомогу подяка пану patriot2305
Увага! Перед завантаженням переконайтесь, що ваш пристрій відтворення (та/або ПЗ) підтримує H.265 (HEVC)


Золотий реліз (завантажене не впливає на рейтинг)
 Трекер:    Зареєстрований   

Завантажити / скачати фільм українською



відео для новачків



 Зареєстрований:   2019-09-26 10:03
 Розмір:   49.36 GB 
 Оцінка фільму:   8.1/10 (Голосів: 13)
   
Інші релізи
   Чаклунка / Maleficent (2014) [Open Matte] 1080p Ukr/Eng | Sub Eng Alukret  4 / 0   4.9 GB   2020-10-22 10:29 
   Чаклунка / Maleficent (2014) AVC Ukr/Eng | Sub Eng patriot2305  24 / 0   1.77 GB   2019-12-27 10:24 
   Чаклунка / Maleficent (2014) Remux 1080p Ukr/Eng | Sub Eng antik_2008  3 / 0   23.43 GB   2019-09-27 18:06 
   Чаклунка / Maleficent (2014) [640 x 270] DmitryA  0 / 0   859 MB   2015-08-04 18:34 
   Чаклунка / Maleficent (2014) 1080p [60fps] Ukr/Eng | Sub Eng Estranded  4 / 0   8.53 GB   2014-10-03 11:09 
   Чаклунка / Maleficent (2014) 1080p 3D [Half OverUnder] Ukr/Eng 3d_reliz  7 / 0   8.71 GB   2014-09-28 19:07 
   Чаклунка / Maleficent (2014) 720p-mini (60fps) Drool  0 / 0   4.62 GB   2014-09-15 22:55 
   Чаклунка / Maleficent (2014) 1080p Ukr/Eng | Sub Eng 11FrYkT  14 / 0   10.91 GB   2014-09-14 09:00 
   Чаклунка / Maleficent (2014) 720p Ukr/Eng | Sub Eng 11FrYkT  12 / 0   4.23 GB   2014-09-14 07:21 
   Чаклунка / Maleficent (2014) Gelios  19 / 0   1.45 GB   2014-09-13 13:50 
Алк 
Новенький


З нами з: 02.08.16
Востаннє: 14.01.21
Повідомлень: 2

2019-09-30 20:54  
48кБ/с швидкість. Два тижні качати... Sad (1)
Алк 
Новенький


З нами з: 02.08.16
Востаннє: 14.01.21
Повідомлень: 2

2019-10-02 21:10  
22,8... три тижні...
ra104ra 
Новенький


З нами з: 19.08.13
Востаннє: 12.01.21
Повідомлень: 2

2020-01-25 20:02  
В мене на телевізорі не відтворюється українська доріжка
igor911 
Модератор відео


З нами з: 18.01.08
Востаннє: 16.01.21
Повідомлень: 15322

2020-01-25 21:29  
ra104ra написано:
В мене на телевізорі не відтворюється українська доріжка

Отже, ваш телек не підтримує формат .

M0on75e1l 
Новенький


З нами з: 10.12.11
Востаннє: 15.01.21
Повідомлень: 8

2021-01-11 21:20  
Те саме. Картинка хороша, кінчик супер, але качати цю роздачу не раджу.
Ваш часовий пояс: GMT + 2 Години

Нова тема   Відповісти