Індокитай / Indochine (1992) AVC 2xUkr/Fre | Sub Fre

Нові коментарі

Нова тема   Відповісти
Автор Повідомлення
Arsenfpu 
Відео Гуртом - фільмокрай
Відео Гуртом - фільмокрай


З нами з: 30.04.09
Востаннє: 18.10.19
Повідомлень: 6150

2019-09-26 00:02  
Індокитай / Indochine (1992) AVC 2xUkr/Fre | Sub Fre

Індокитай / Indochine (1992) AVC 2xUkr/Fre | Sub Fre


Жанр: драма, романтичний
Країна: Франція



Кінокомпанія: Paradis Films
Режисер: Режі Варньє
Актори: Катрін Деньов, Венсан Перез, Лін Дан Пам, Домінік Бланк

Сюжет:
Дія фільму відбувається у В'єтнамі тридцятих років минулого століття. Перед нами розгортається подвійна любовна історія. Історія кохання власниці каучукових плантацій Еліани і її доньки-приймачки Камілли до молодого морського офіцера Жана-Батіста. І всі ці, здавалося б, суто приватні пристрасті киплять на тлі комуністичних заворушень у В'єтнамі та самовизначення нації, отримання незалежності від Франції.


Тривалість: 02:38:12
Якість:
Відео:
кодек:
розмір кадру: 1 024 х 560
бітрейт: 2 100 кб/с

Аудіо # 1:
мова: українська
переклад: двоголосий закадровий (з 5.1)
кодек: 2.0
бітрейт: 192 кб/с

Аудіо # 2:
мова: українська
переклад: багатоголосий закадровий
кодек: 2.0
бітрейт: 192 кб/с

Аудіо # 3:
мова: французька
переклад: оригінал
кодек: 2.0
бітрейт: 192 кб/с

Субтитри:
мова: французька
тип: програмні (м'які)
формат: *.srt
Про файл
General
Unique ID : 55131229010904250626906596148114999126 (0x2979E373936907318A39958A45E9C756)
Complete name : C:\Indochine (1992) [2xUkr,Fra] AVC [Hurtom].
Format :
Format version : Version 4 / Version 2
File size : 2.96 GiB
Duration : 2 h 38 min
Overall bit rate : 2 678 kb/s
Movie name : Індокитай / Indochine (1992)
Encoded date : UTC 2019-09-25 20:37:56
Writing application : v21.0.0 ('Tardigrades Will Inherit The Earth') 32-bit
Writing library : libebml v1.3.5 + v1.4.8
Cover : Yes
Attachments : cover.jpg

Video
ID : 1
Format : AVC
Format/Info : Advanced Video Codec
Format profile : [email protected]
Format settings, CABAC : Yes
Format settings, ReFrames : 4 frames
Codec ID : V_MPEG4/ISO/AVC
Duration : 2 h 38 min
Bit rate : 2 100 kb/s
Width : 1 024 pixels
Height : 560 pixels
Display aspect ratio : 1.85:1
Frame rate mode : Constant
Frame rate : 24.000 FPS
Color space : YUV
Chroma subsampling : 4:2:0
Bit depth : 8 bits
Scan type : Progressive
Bits/(Pixel*Frame) : 0.153
Stream size : 2.32 GiB (78%)
Writing library : core 157 r2935 545de2f
Encoding settings : cabac=1 / ref=3 / deblock=1:-1:-1 / analyse=0x3:0x113 / me=hex / subme=7 / psy=1 / psy_rd=1.00:0.15 / mixed_ref=1 / me_range=16 / chroma_me=1 / trellis=1 / 8x8dct=1 / cqm=0 / deadzone=21,11 / fast_pskip=1 / chroma_qp_offset=-3 / threads=12 / lookahead_threads=2 / sliced_threads=0 / nr=0 / decimate=1 / interlaced=0 / bluray_compat=0 / constrained_intra=0 / bframes=3 / b_pyramid=2 / b_adapt=1 / b_bias=0 / direct=1 / weightb=1 / open_gop=0 / weightp=2 / keyint=240 / keyint_min=24 / scenecut=40 / intra_refresh=0 / rc_lookahead=40 / rc=2pass / mbtree=1 / bitrate=2100 / ratetol=1.0 / qcomp=0.60 / qpmin=0 / qpmax=69 / qpstep=4 / cplxblur=20.0 / qblur=0.5 / ip_ratio=1.40 / aq=1:1.00
Default : Yes
Forced : No

Audio #1
ID : 2
Format : AC-3
Format/Info : Audio Coding 3
Mode extension : CM (complete main)
Format settings, Endianness : Big
Codec ID : A_AC3
Duration : 2 h 38 min
Bit rate mode : Constant
Bit rate : 192 kb/s
Channel(s) : 2 channels
Channel positions : Front: L R
Sampling rate : 48.0 kHz
Frame rate : 31.250 FPS (1536 spf)
Compression mode : Lossy
Stream size : 217 MiB (7%)
Title : 1+1
Language : Ukrainian
Default : Yes
Forced : Yes

Audio #2
ID : 3
Format : AC-3
Format/Info : Audio Coding 3
Mode extension : CM (complete main)
Format settings, Endianness : Big
Codec ID : A_AC3
Duration : 2 h 38 min
Bit rate mode : Constant
Bit rate : 192 kb/s
Channel(s) : 2 channels
Channel positions : Front: L R
Sampling rate : 48.0 kHz
Frame rate : 31.250 FPS (1536 spf)
Compression mode : Lossy
Stream size : 217 MiB (7%)
Title : Інтер
Language : Ukrainian
Default : No
Forced : No

Audio #3
ID : 4
Format : AC-3
Format/Info : Audio Coding 3
Mode extension : CM (complete main)
Format settings, Endianness : Big
Codec ID : A_AC3
Duration : 2 h 38 min
Bit rate mode : Constant
Bit rate : 192 kb/s
Channel(s) : 2 channels
Channel positions : Front: L R
Sampling rate : 48.0 kHz
Frame rate : 31.250 FPS (1536 spf)
Compression mode : Lossy
Stream size : 217 MiB (7%)
Language : French
Default : No
Forced : No

Text
ID : 5
Format : UTF-8
Codec ID : S_TEXT/UTF8
Codec ID/Info : UTF-8 Plain Text
Duration : 2 h 38 min
Bit rate : 34 b/s
Count of elements : 1246
Stream size : 39.7 KiB (0%)
Language : French
Default : Yes
Forced : No
Скріншоти














Джерело:
За українські доріжки дякую п. olgaya, robotron005, kryk-v.ya.
За постер дякую пану DrediS
Особиста оцінка: не дивився


Срібний реліз (на рейтинг впливає 50% завантаженого)
 Трекер:    Зареєстрований   

Завантажити / скачати фільм українською



відео для новачків



 Зареєстрований:   2019-09-26 00:02
 Розмір:   2.96 GB 
 Оцінка фільму:   7.8/10 (Голосів: 4)
   
Інші релізи
   Індокитай / Indochine (1992) Remux 1080p 2xUkr/Fre | Sub Fre/Eng [4K Restoration] kryk-v.ya.  1 / 0   30.51 GB   2019-05-09 20:03 
   Індокитай / Indochine (1992) sokeel  2 / 0   1.39 GB   2017-03-14 15:19 
   Індокитай / Indochine (1992) 720p Ukr/Fra Загора  5 / 0   6.59 GB   2016-05-17 21:34 
   Індокитай / Indochine (1992) Ukr/Fra robotron005  7 / 0   2.91 GB   2011-03-10 17:53 
Ваш часовий пояс: GMT + 2 Години

Нова тема   Відповісти