UglyDolls. Ляльки з характером / UglyDolls (2019) Remux 1080p Ukr/Eng | Sub Eng

Нові коментарі

Нова тема   Відповісти
Останній раз роздавалося VINRARUS (2021-03-03)
Автор Повідомлення
Anonymous 







2019-09-25 22:35  
UglyDolls. Ляльки з характером / UglyDolls (2019) Remux 1080p Ukr/Eng | Sub Eng


UglyDolls. Ляльки з характером / UglyDolls (2019) Remux 1080p Ukr/Eng | Sub Eng
Усі українські постери:
















«Милота - страшна сила!»


Жанр: комедія, мультфільм, мюзикл, пригоди, сімейний, фентезі
Країна: Китай, Канада, США



Кінокомпанія: STX Entertainment, Alibaba Pictures, Huaxia Film Distribution
Режисер: Келлі Есбері
Актори: Келлі Кларксон, Нік Джонас, Жанель Моне, Блейк Шелтон, Пітбуль, Габріель Іглесіас, Ванда Сайкс, Лі-Хом Ванг, Бібі Рекса

Сюжет:
У милому і вельми незвичайному містечку Ляльковіль вільнодумна Моксі та її друзі-ляльки стикаються з тим, що означає бути інакшими в цьому суворому світі, боряться зі своїм бажанням бути любимими і в результаті відкривають, що тобі не потрібно бути ідеальним, щоб бути класним, оскільки найважливіше — це те, ким ти є всередині.


Тривалість: 01:27:50
Якість: Remux 1080p
Відео:
кодек:
розмір кадру: 1920x1080
бітрейт: 27,6 мб/с

Аудіо # 1:
мова: українська
переклад: професійний дубльований | студія LeDoyen
кодек: 5.1
бітрейт: 384 кб/с
Інформація про дубляж
Перекладач: Анна Пащенко
Режисер дубляжу: Павло Скороходько
Музичний редактор: Тетяна Піроженко
Звукорежисер: Альона Шиманович
Звукорежисер перезапису: Станіслав Ногін
Координатор: Марина Булаковська
Ролі дублювали:
Моксі - Юлія Перенчук, співає Вероніка Дорош;
Менді - Ганна Дончик (Чиж), співає Айна Вільберг;
Окс - Сергій Кияшко,
Вейдж - Ольга Радчук,
Бабо - Артем Мартинішин,
Щасливчик - Андрій Альохін,
а також: Дарина Муращенко, Вікторія Москаленко, Анастасія Жарнікова, Павло Скороходько, Дмитро Гаврилов та інші.

Фільм дубльовано студією LeDoyen на замовлення компанії "Вольга Україна".
Аудіо # 2:
мова: англійська
переклад: оригінал
кодек: -HD MA 7.1
бітрейт: 3947 кб/с

Субтитри # 1-2: (Full, SDH)
мова: англійська
тип: програмні (м'які)
формат: *.srt
Info
General
Complete name : UglyDolls (2019) Remux [UKR_ENG].
Format :
Format version : Version 4
File size : 19.6 GiB
Duration : 1 h 27 min
Overall bit rate mode : Variable
Overall bit rate : 31.9 Mb/s
Encoded date : UTC 2019-09-25 20:19:46
Writing application : v30.1.0 ('Forever And More') 64-bit
Writing library : libebml v1.3.6 + v1.4.9
Cover : Yes
Attachments : cover.jpg

Video
ID : 1
Format : AVC
Format/Info : Advanced Video Codec
Format profile : [email protected]
Format settings : CABAC / 4 Ref Frames
Format settings, CABAC : Yes
Format settings, RefFrames : 4 frames
Format settings, GOP : M=3, N=12
Codec ID : V_MPEG4/ISO/AVC
Duration : 1 h 27 min
Bit rate mode : Variable
Bit rate : 27.6 Mb/s
Maximum bit rate : 38.3 Mb/s
Width : 1 920 pixels
Height : 1 080 pixels
Display aspect ratio : 16:9
Frame rate mode : Constant
Frame rate : 23.976 (24000/1001) FPS
Color space : YUV
Chroma subsampling : 4:2:0
Bit depth : 8 bits
Scan type : Progressive
Bits/(Pixel*Frame) : 0.555
Stream size : 16.9 GiB (86%)
Language : English
Default : Yes
Forced : No

Audio #1
ID : 2
Format : AC-3
Format/Info : Audio Coding 3
Commercial name : Dolby Digital
Codec ID : A_AC3
Duration : 1 h 27 min
Bit rate mode : Constant
Bit rate : 384 kb/s
Channel(s) : 6 channels
Channel layout : L R C LFE Ls Rs
Sampling rate : 48.0 kHz
Frame rate : 31.250 FPS (1536 SPF)
Bit depth : 16 bits
Compression mode : Lossy
Stream size : 241 MiB (1%)
Title : , 6 ch, 384 Кбт/с
Language : Ukrainian
Service kind : Complete Main
Default : Yes
Forced : No

Audio #2
ID : 3
Format : XLL
Format/Info : Digital Theater Systems
Commercial name : -HD Master Audio
Codec ID : A_DTS
Duration : 1 h 27 min
Bit rate mode : Variable
Bit rate : 3 947 kb/s
Channel(s) : 8 channels
Channel layout : C L R LFE Lb Rb Lss Rss
Sampling rate : 48.0 kHz
Frame rate : 93.750 FPS (512 SPF)
Bit depth : 24 bits
Compression mode : Lossless
Stream size : 2.42 GiB (12%)
Title : -HD MA, 8 ch, 3947 Кбт/с
Language : English
Default : No
Forced : No

Text #1
ID : 4
Format : UTF-8
Codec ID : S_TEXT/UTF8
Codec ID/Info : UTF-8 Plain Text
Duration : 1 h 24 min
Bit rate : 80 b/s
Count of elements : 1414
Stream size : 49.4 KiB (0%)
Title : Full
Language : English
Default : No
Forced : No

Text #2
ID : 5
Format : UTF-8
Codec ID : S_TEXT/UTF8
Codec ID/Info : UTF-8 Plain Text
Duration : 1 h 26 min
Bit rate : 85 b/s
Count of elements : 1535
Stream size : 54.0 KiB (0%)
Title : SDH
Language : English
Default : No
Forced : No

Menu
00:00:00.000 : :Chapter 1
00:05:31.331 : :Chapter 2
00:09:12.260 : :Chapter 3
00:14:14.145 : :Chapter 4
00:18:58.304 : :Chapter 5
00:21:17.234 : :Chapter 6
00:25:28.152 : :Chapter 7
00:29:24.680 : :Chapter 8
00:32:01.128 : :Chapter 9
00:34:52.465 : :Chapter 10
00:40:21.919 : :Chapter 11
00:44:45.099 : :Chapter 12
00:51:15.739 : :Chapter 13
00:55:46.969 : :Chapter 14
00:59:33.904 : :Chapter 15
01:02:04.554 : :Chapter 16
01:07:05.063 : :Chapter 17
01:12:36.852 : :Chapter 18
01:16:31.128 : :Chapter 19
01:19:44.863 : :Chapter 20
Скріншоти




Джерело: NNMClub
Особиста оцінка: 0 - не дивився


Золотий реліз (завантажене не впливає на рейтинг)
 Трекер:    Зареєстрований   

Завантажити / скачати мультфільм українською



відео для новачків



 Зареєстрований:   2019-09-25 23:32
 Розмір:   19.59 GB 
 Оцінка мультфільму:   7.4/10 (Голосів: 9)
   
І-р 
Свій


З нами з: 21.07.16
Востаннє: 02.03.21
Повідомлень: 145

2019-09-26 19:16  
Агов! хто дивився! Напишіть щось про мультик! Чи тут тільки нудні технічні параметри і правила оформлення (не менш нудні) жваво обговорюються?
ukrnet 
Свій


З нами з: 03.01.14
Востаннє: 02.03.21
Повідомлень: 112

2019-09-30 21:12  
)))) Мульт відпатд ))))))
banan.gominid 
Новенький


З нами з: 30.06.13
Востаннє: 01.03.21
Повідомлень: 7

2019-10-07 17:52  
Мульт дуже нудний.
Ще купа тошнотних пісенок.

Ваш часовий пояс: GMT + 2 Години

Нова тема   Відповісти