UglyDolls. Ляльки з характером / UglyDolls (2019) 1080p H.265 Ukr/Eng | Sub Eng

Нові коментарі

Нова тема   Відповісти
Автор Повідомлення
Anonymous 







2019-09-25 22:09  
UglyDolls. Ляльки з характером / UglyDolls (2019) 1080p H.265 Ukr/Eng | Sub Eng

UglyDolls. Ляльки з характером / UglyDolls (2019) 1080p H.265 Ukr/Eng | Sub Eng
Усі українські постери:

















Жанр: комедія, мультфільм, мюзикл, пригодницький, сімейний, фентезі
Країна: Китай, Канада, США



Кінокомпанія: STX Entertainment, Alibaba Pictures, Huaxia Film Distribution
Режисер: Келлі Есбері
Актори: Келлі Кларксон, Нік Джонас, Жанель Моне, Блейк Шелтон, Пітбуль, Габріель Іглесіас, Ванда Сайкс, Лі-Хом Ванг, Бібі Рекса

Сюжет:
У милому і вельми незвичайному містечку Ляльковіль вільнодумна Моксі та її друзі-ляльки стикаються з тим, що означає бути інакшими в цьому суворому світі, боряться зі своїм бажанням бути коханими і в результаті відкривають, що тобі не потрібно бути ідеальним, щоб бути класним, оскільки найважливіше — це те, ким ти є всередині.

Тривалість: 01:27:50
Якість:

Відео:
кодек: H.265 (HEVC)
розмір кадру: 1920 x 1040
бітрейт: 6 880 кб/с
бітова глибина: 10 біт

Увага! Перед завантаженням переконайтесь, що ваш пристрій відтворення (та/або ПЗ) підтримує H.265 (HEVC)

Аудіо # 1:
мова: українська
переклад: професійний дубльований | студія LeDoyen
кодек: AC-3 5.1
бітрейт: 384 кб/с
Інформація про дубляж
Перекладач: Анна Пащенко
Режисер дубляжу: Павло Скороходько
Музичний редактор: Тетяна Піроженко
Звукорежисер: Альона Шиманович
Звукорежисер перезапису: Станіслав Ногін
Координатор: Марина Булаковська
Ролі дублювали:
Моксі - Юлія Перенчук, співає Вероніка Дорош;
Менді - Ганна Дончик (Чиж), співає Айна Вільберг;
Окс - Сергій Кияшко,
Вейдж - Ольга Радчук,
Бабо - Артем Мартинішин,
Щасливчик - Андрій Альохін,
а також: Дарина Муращенко, Вікторія Москаленко, Анастасія Жарнікова, Павло Скороходько, Дмитро Гаврилов та інші.

Фільм дубльовано студією LeDoyen на замовлення компанії "Вольга Україна".
Аудіо # 2:
мова: англійська
переклад: оригінал
кодек: 5.1
бітрейт: 1510 кб/с

Субтитри # 1-2: (Full, SDH)
мова: англійська
тип: програмні (м'які)
формат: *.srt


Info
Код:
General
Unique ID                                : 244630117511462334678880240793054104848 (0xB80A0BFF1C528E5CEE3C06A318644D10)
Complete name                            : UglyDolls (2019) 1080p H.265 [UKR_ENG] [Hurtom].
Format                                   :
Format version                           : Version 4
File size                                : 5.38 GiB
Duration                                 : 1 h 27 min
Overall bit rate                         : 8 776 kb/s
Movie name                               : UglyDolls. Ляльки з характером / UglyDolls (2019)
Encoded date                             : UTC 2019-09-25 20:00:26
Writing application                      : v20.0.0 ('I Am The Sun') 64-bit
Writing library                          : libebml v1.3.5 + v1.4.8
Cover                                    : Yes
Attachments                              : Cover.jpg

Video
ID                                       : 1
Format                                   : HEVC
Format/Info                              : High Efficiency Video Coding
Format profile                           : Main [email protected]@High
Codec ID                                 : V_MPEGH/ISO/HEVC
Duration                                 : 1 h 27 min
Bit rate                                 : 6 880 kb/s
Width                                    : 1 920 pixels
Height                                   : 1 040 pixels
Display aspect ratio                     : 1.85:1
Frame rate mode                          : Constant
Frame rate                               : 23.976 (24000/1001) FPS
Color space                              : YUV
Chroma subsampling                       : 4:2:0
Bit depth                                : 10 bits
Bits/(Pixel*Frame)                       : 0.144
Stream size                              : 4.22 GiB (78%)
Title                                    : UglyDolls. Ляльки з характером / UglyDolls (2019)
Language                                 : English
Default                                  : Yes
Forced                                   : No
Color range                              : Limited
Color primaries                          : BT.709
Transfer characteristics                 : BT.709
Matrix coefficients                      : BT.709

Audio #1
ID                                       : 2
Format                                   : AC-3
Format/Info                              : Audio Coding 3
Commercial name                          : Dolby Digital
Codec ID                                 : A_AC3
Duration                                 : 1 h 27 min
Bit rate mode                            : Constant
Bit rate                                 : 384 kb/s
Channel(s)                               : 6 channels
Channel layout                           : L R C LFE Ls Rs
Sampling rate                            : 48.0 kHz
Frame rate                               : 31.250 FPS (1536 SPF)
Bit depth                                : 16 bits
Compression mode                         : Lossy
Stream size                              : 241 MiB (4%)
Title                                    : / 5.1 Ch / 384 kbps / ПД / iTunes
Language                                 : Ukrainian
Service kind                             : Complete Main
Default                                  : Yes
Forced                                   : Yes

Audio #2
ID                                       : 3
Format                                   :
Format/Info                              : Digital Theater Systems
Codec ID                                 : A_DTS
Duration                                 : 1 h 27 min
Bit rate mode                            : Constant
Bit rate                                 : 1 509 kb/s
Channel(s)                               : 6 channels
Channel layout                           : C L R Ls Rs LFE
Sampling rate                            : 48.0 kHz
Frame rate                               : 93.750 FPS (512 SPF)
Bit depth                                : 24 bits
Compression mode                         : Lossy
Delay relative to video                  : 17 ms
Stream size                              : 948 MiB (17%)
Title                                    : / 5.1 Ch / 1509 kbps / Original
Language                                 : English
Default                                  : No
Forced                                   : No

Text #1
ID                                       : 4
Format                                   : UTF-8
Codec ID                                 : S_TEXT/UTF8
Codec ID/Info                            : UTF-8 Plain Text
Duration                                 : 1 h 24 min
Bit rate                                 : 80 b/s
Count of elements                        : 1414
Stream size                              : 49.4 KiB (0%)
Title                                    : Full
Language                                 : English
Default                                  : No
Forced                                   : No

Text #2
ID                                       : 5
Format                                   : UTF-8
Codec ID                                 : S_TEXT/UTF8
Codec ID/Info                            : UTF-8 Plain Text
Duration                                 : 1 h 26 min
Bit rate                                 : 85 b/s
Count of elements                        : 1535
Stream size                              : 54.0 KiB (0%)
Title                                    : SDH
Language                                 : English
Default                                  : No
Forced                                   : No

Menu
00:00:00.000                             : :Chapter 1
00:05:31.331                             : :Chapter 2
00:09:12.260                             : :Chapter 3
00:14:14.145                             : :Chapter 4
00:18:58.304                             : :Chapter 5
00:21:17.234                             : :Chapter 6
00:25:28.152                             : :Chapter 7
00:29:24.680                             : :Chapter 8
00:32:01.128                             : :Chapter 9
00:34:52.465                             : :Chapter 10
00:40:21.919                             : :Chapter 11
00:44:45.099                             : :Chapter 12
00:51:15.739                             : :Chapter 13
00:55:46.969                             : :Chapter 14
00:59:33.904                             : :Chapter 15
01:02:04.554                             : :Chapter 16
01:07:05.063                             : :Chapter 17
01:12:36.852                             : :Chapter 18
01:16:31.128                             : :Chapter 19
01:19:44.863                             : :Chapter 20
Світлини




Джерело: &
Особиста оцінка: 0 - не дивився


 Трекер:    Зареєстрований   

Завантажити / скачати мультфільм українською



відео для новачків



 Зареєстрований:   2019-09-25 22:09
 Розмір:   5.38 GB 
 Оцінка мультфільму:   8.6/10 (Голосів: 9)
   
JanusK 
Новенький


З нами з: 15.01.17
Востаннє: 09.01.21
Повідомлень: 24

2019-10-14 10:09  
Щиро дякую за реліз у H.265
Anonymous 







2019-10-14 21:33  
JanusK
На здоров'я!

Ваш часовий пояс: GMT + 2 Години

Нова тема   Відповісти