Професіонал / Le professionnel (1981) Remux 1080p Ukr/Fra | Sub Eng

Нові коментарі

Нова тема   Відповісти
Автор Повідомлення
MakRA 
VIP


З нами з: 11.11.18
Востаннє: 29.09.20
Повідомлень: 1120

2019-09-25 03:11  
Професіонал / Le professionnel (1981) Remux 1080p Ukr/Fra | Sub Eng


Альтернативні обкладинки:




Альтернативні постери:



Жанр: кримінальний, драма, екшн, трилер
Країна: Франція



Кінокомпанія: Cerito Films, Les Films Ariane
Режисер: Жорж Лотнер [Georges Lautner]
Актори: Жан-Поль Бельмондо [Jean-Paul Belmondo], Робер Осейн [Robert Hossein], Сир'єль Клер [Cyrielle Clair], Мішель Бон [Michel Beaune], П'єр Сентон [Pierre Saintons], Жан Десеї [Jean Desailly], Жан-Луї Ришар [Jean-Louis Richard], Елізабет Маргоні [Elisabeth Margoni], Бернар-П'єр Донадьє [], Марі-Кристін Декуар [Marie-Christine Descouard], Серж Нубре [Serge Nubret]

Сюжет:
Французького секретного агента Жослена Бомона відсилають до Малагаві, вигаданої Африканської країни, щоб убити правлячого там диктатора, полковника Нджалу. Проте в перебігу цього завдання політична ситуація сильно змінилася і французькі спецслужби здають Бомона Малагавійській владі. Після довгого й несправедливого судового розгляду, під час якого Бомону впорскували наркотичні речовини, його засуджено до тривалої каторги в «таборі повторного виховання». Після відчайдушної втечі з одним із в'язнів, він повертається до Франції...

На основі книжки 1976 року "Смерть тонкошкірої тварини" ("Mort d'une bete a la peau fragile") письменника Патрика Олександра. Музику скомпонував композитор Еніо Мориконе, зокрема, всесвітньо відому тему Chi Mai.



Тривалість: 01:47:53
Якість: Remux 1080p
Відео:
кодек:
розмір кадру: 1920 х 1080
бітрейт: 24 Mб/с

Аудіо # 1:
мова: українська
переклад: двоголосий закадровий
кодек: 2.0
бітрейт: 192 кб/с

Аудіо # 2:
мова: французька
переклад: оригінал
кодек: 2.0
бітрейт: 224 кб/с

Субтитри: (Full)
мова: англійська
тип: програмні (м'які)
формат: *.srt
Info
General
Unique ID : 115165822422501609102663427614921160711 (0x56A4216ED3EA1730BDFAA86FEB077807)
Complete name : E:\+Фільмографії-Жан-Поль Бельмондо [Jean-Paul Belmondo]\Le professionnel (1981) Remux 1080p UkrFra Sub Eng [Hurtom].
Format :
Format version : Version 4
File size : 18.4 GiB
Duration : 1 h 47 min
Overall bit rate mode : Variable
Overall bit rate : 24.4 Mb/s
Movie name : Професіонал / Le professionnel (1981) Remux 1080p UkrFra Sub Eng [Hurtom]
Encoded date : UTC 2019-09-24 21:08:06
Writing application : v25.0.0 ('Prog Noir') 64-bit
Writing library : libebml v1.3.6 + v1.4.9
Cover : Yes
Attachments : cover.jpg

Video
ID : 1
Format : AVC
Format/Info : Advanced Video Codec
Format profile : [email protected]
Format settings : CABAC / 4 Ref Frames
Format settings, CABAC : Yes
Format settings, Reference fra : 4 frames
Codec ID : V_MPEG4/ISO/AVC
Duration : 1 h 47 min
Bit rate mode : Variable
Bit rate : 24.0 Mb/s
Maximum bit rate : 38.0 Mb/s
Width : 1 920 pixels
Height : 1 080 pixels
Display aspect ratio : 16:9
Frame rate mode : Constant
Frame rate : 24.000 FPS
Color space : YUV
Chroma subsampling : 4:2:0
Bit depth : 8 bits
Scan type : Progressive
Bits/(Pixel*Frame) : 0.482
Stream size : 18.1 GiB (98%)
Title : Le professionnel (1981) Remux 1080p UkrFra Sub Eng [Hurtom]
Language : Ukrainian
Default : Yes
Forced : Yes
Color range : Limited
Color primaries : BT.709
Transfer characteristics : BT.709
Matrix coefficients : BT.709

Audio #1
ID : 2
Format : AC-3
Format/Info : Audio Coding 3
Commercial name : Dolby Digital
Codec ID : A_AC3
Duration : 1 h 47 min
Bit rate mode : Constant
Bit rate : 192 kb/s
Channel(s) : 2 channels
Channel layout : L R
Sampling rate : 48.0 kHz
Frame rate : 31.250 FPS (1536 SPF)
Bit depth : 16 bits
Compression mode : Lossy
Stream size : 148 MiB (1%)
Title : DVO [1+1] 2.0
Language : Ukrainian
Service kind : Complete Main
Default : Yes
Forced : Yes

Audio #2
ID : 3
Format : AC-3
Format/Info : Audio Coding 3
Commercial name : Dolby Digital
Codec ID : A_AC3
Duration : 1 h 47 min
Bit rate mode : Constant
Bit rate : 224 kb/s
Channel(s) : 2 channels
Channel layout : L R
Sampling rate : 48.0 kHz
Frame rate : 31.250 FPS (1536 SPF)
Bit depth : 16 bits
Compression mode : Lossy
Stream size : 173 MiB (1%)
Title : Original 2.0
Language : French
Service kind : Complete Main
Default : No
Forced : No

Text
ID : 4
Format : UTF-8
Codec ID : S_TEXT/UTF8
Codec ID/Info : UTF-8 Plain Text
Duration : 1 h 43 min
Bit rate : 50 b/s
Count of elements : 1171
Stream size : 38.2 KiB (0%)
Title : Eng (Full)
Language : French
Default : No
Forced : No
Скріншоти
Джерело: &
Дякую п. rooster за звук
Особиста оцінка: 10 - без зайвих вагань рекомендую всім!


Золотий реліз (завантажене не впливає на рейтинг)
 Трекер:    Зареєстрований   

Завантажити / скачати фільм українською



відео для новачків



 Зареєстрований:   2019-09-25 03:11
 Розмір:   18.39 GB 
 Оцінка фільму:   10/10 (Голосів: 12)
   
Інші релізи
   Професіонал / Le professionnel (1981) AVC Ukr/Fra staf777  2 / 0   2.97 GB   2019-09-23 21:00 
   Професіонал / Le professionnel (1981) 720p Ukr/Fra rooster  3 / 0   6.71 GB   2011-04-06 22:08 
   Професіонал / Le professionnel (1981) Ukr/Fra rooster  7 / 0   1.46 GB   2011-03-08 15:54 
Oleksa9 
VIP


З нами з: 17.05.12
Востаннє: 29.09.20
Повідомлень: 412

2019-12-31 11:42  
діючих -> чинних
щьоб -> аби
прослухування -> прослуховування
щьо
прошу пробачення -> перепрошую

Skovorodkin1985 
Новенький


З нами з: 09.01.15
Востаннє: 14.09.20
Повідомлень: 20

2020-07-06 18:58  
Згадаємо пана Морріконе.
Ваш часовий пояс: GMT + 2 Години

Нова тема   Відповісти