Без паніки, майоре Кардош! / Csak semmi pánik... (1982) -AVC Ukr/Hun

Нові коментарі

Нова тема   Відповісти
Автор Повідомлення
Arsenfpu 
Відео Гуртом - фільмокрай
Відео Гуртом - фільмокрай


З нами з: 30.04.09
Востаннє: 20.10.19
Повідомлень: 6153

2019-09-24 21:31  
Без паніки, майоре Кардош! / Csak semmi pánik... (1982) -AVC Ukr/Hun

Без паніки, майоре Кардош! / Csak semmi pánik... (1982) -AVC Ukr/Hun


Жанр: бойовик, детектив, комедія
Країна: Угорщина



Кінокомпанія: Ötvös Csöpi Series
Режисер: Іштван Буйтор, Sándor Szönyi G.
Актори: Іштван Буйтор, Ференц Пушкаш, Андраш Керн, Марія Гор Нодь

Сюжет:
У районі озера Балатон зазнає аварії літак з Німеччини. Майор угорської міліції Кардош по телефону дізнається від дочки загиблого льотчика, що у неї зберігається лист, де її батько розповідає про вивезені під час Другої світової війни з Будапешта музейні цінності. До листа додається детальна карта. Розслідування ускладнюється цілою низкою загадкових вбивств. Хто ж швидше добереться до скарбів - супермен Етвош на прізвисько Капелька - лейтенант міліції, який робить за Кардош всю чоловічу роботу, або злочинці? ...


Тривалість: 01:24:00
Якість:
Відео:
кодек:
розмір кадру: 696 х 520
бітрейт: 2400 кб/с

Аудіо # 1:
мова: українська
переклад: двоголосий закадровий
кодек: 2.0
бітрейт: 192 кб/с

Аудіо # 2:
мова: угорська
переклад: оригінал
кодек: 2.0
бітрейт: 192 кб/с
Про файл
General
Unique ID : 338331099138779556449987171324851298242 (0xFE88331218BACEBA56987081CB1A9FC2)
Complete name : C:\Csak semmi pánik... (1982) [Ukr,Hun] -AVC [Hurtom].
Format :
Format version : Version 4 / Version 2
File size : 1.65 GiB
Duration : 1 h 24 min
Overall bit rate : 2 787 kb/s
Movie name : Без паніки, майоре Кардош! / Csak semmi pánik... (1982)
Encoded date : UTC 2019-09-24 18:09:36
Writing application : v21.0.0 ('Tardigrades Will Inherit The Earth') 32-bit
Writing library : libebml v1.3.5 + v1.4.8
Cover : Yes
Attachments : cover.jpg

Video
ID : 1
Format : AVC
Format/Info : Advanced Video Codec
Format profile : [email protected]
Format settings, CABAC : Yes
Format settings, ReFrames : 4 frames
Codec ID : V_MPEG4/ISO/AVC
Duration : 1 h 24 min
Bit rate : 2 400 kb/s
Width : 696 pixels
Height : 520 pixels
Display aspect ratio : 4:3
Frame rate mode : Constant
Frame rate : 25.000 FPS
Color space : YUV
Chroma subsampling : 4:2:0
Bit depth : 8 bits
Scan type : Progressive
Bits/(Pixel*Frame) : 0.265
Stream size : 1.42 GiB (86%)
Writing library : core 157 r2935 545de2f
Encoding settings : cabac=1 / ref=3 / deblock=1:-1:-1 / analyse=0x3:0x113 / me=hex / subme=7 / psy=1 / psy_rd=1.00:0.15 / mixed_ref=1 / me_range=16 / chroma_me=1 / trellis=1 / 8x8dct=1 / cqm=0 / deadzone=21,11 / fast_pskip=1 / chroma_qp_offset=-3 / threads=12 / lookahead_threads=2 / sliced_threads=0 / nr=0 / decimate=1 / interlaced=0 / bluray_compat=0 / constrained_intra=0 / bframes=3 / b_pyramid=2 / b_adapt=1 / b_bias=0 / direct=1 / weightb=1 / open_gop=0 / weightp=2 / keyint=250 / keyint_min=25 / scenecut=40 / intra_refresh=0 / rc_lookahead=40 / rc=2pass / mbtree=1 / bitrate=2400 / ratetol=1.0 / qcomp=0.60 / qpmin=0 / qpmax=69 / qpstep=4 / cplxblur=20.0 / qblur=0.5 / ip_ratio=1.40 / aq=1:1.00
Default : Yes
Forced : No

Audio #1
ID : 2
Format : AC-3
Format/Info : Audio Coding 3
Mode extension : CM (complete main)
Format settings, Endianness : Big
Codec ID : A_AC3
Duration : 1 h 24 min
Bit rate mode : Constant
Bit rate : 192 kb/s
Channel(s) : 2 channels
Channel positions : Front: L R
Sampling rate : 48.0 kHz
Frame rate : 31.250 FPS (1536 spf)
Compression mode : Lossy
Delay relative to video : 24 ms
Stream size : 116 MiB (7%)
Title : Enter
Language : Ukrainian
Default : Yes
Forced : Yes

Audio #2
ID : 3
Format : AC-3
Format/Info : Audio Coding 3
Mode extension : CM (complete main)
Format settings, Endianness : Big
Codec ID : A_AC3
Duration : 1 h 24 min
Bit rate mode : Constant
Bit rate : 192 kb/s
Channel(s) : 2 channels
Channel positions : Front: L R
Sampling rate : 48.0 kHz
Frame rate : 31.250 FPS (1536 spf)
Compression mode : Lossy
Delay relative to video : 241 ms
Stream size : 116 MiB (7%)
Language : Hungarian
Default : No
Forced : No
Скріншоти














Джерело:
За матеріал для релізу дякую п. підпільник, Bohdan237
Особиста оцінка: не дивився


Срібний реліз (на рейтинг впливає 50% завантаженого)
 Трекер:    Зареєстрований   

Завантажити / скачати фільм українською



відео для новачків



 Зареєстрований:   2019-09-24 21:31
 Розмір:   1.65 GB 
 Оцінка фільму:   9.3/10 (Голосів: 3)
   
601сан 
Поважний учасник


З нами з: 22.05.12
Востаннє: 20.10.19
Повідомлень: 157

2019-09-25 11:45  
Це трилогія,чи очікувати ще A Pogany madonna та Az elvarazsolt dollar ?
Фільми варті уваги. Дякую.

dreamer 
VIP


З нами з: 10.05.08
Востаннє: 20.10.19
Повідомлень: 522

2019-09-26 13:10  
гарна стара стрічка..Оновив спогади..дякую.
Ваш часовий пояс: GMT + 2 Години

Нова тема   Відповісти