Формула 1. Сезон 2019. Етап 15. Гран-Прі Сингапуру. Гонка (22.09.2019) HDTV 1080p Ukr/3xEng/Int

Нові коментарі

Нова тема   Відповісти
Останній раз роздавалося VicCob (2020-10-31)
Автор Повідомлення
Anonymous 







2019-09-24 18:22  
Формула 1. Сезон 2019. Етап 15. Гран-Прі Сингапуру. Гонка (22.09.2019) HDTV 1080p Ukr/3xEng/Int



Жанр: Перегони Формули 1
Країна: Сингапур
Телеканал: Feed
Мова коментарів: Англійська (SkySports F1HD, Channel 4, Pit Lane channel), Українська (Максим Подзігун)

Опис:
Етап Formula 1 (F1) складається з 3-х вільних практик, кваліфікації (3 сегменти) і гонки.
Місця пілотів на стартовій решітці (старт з місця) визначаються за підсумками кваліфікації.
Залікові очки нараховуються першим 10 пілотам за системою "25-18-15-12-10-8-6-4-2-1" +1 очко за краще коло.

Склад учасників: Mercedes (Hamilton - Bottas), Ferrari (Vettel - Leclerc), Red Bull Racing (Verstappen - Albon), Renault (Hulkenberg - Ricciardo), Haas F1 Team (Grosjean - Magnussen), McLaren (Sainz - Norris), Alfa Romeo Racing (Räikkönen - Giovinazzi), Toro Rosso (Kvyat - Gasly), Williams (Kubica - Russell), Racing Point (Perez - Stroll).

Опис:
Гонка етап 15. Гран-Прі Сингапуру 2019 року.


Якість: HDTV 1080p

Відео:
кодек:
розмір кадру: 1920x1080
бітрейт: 16900 кб/с

Аудіо # 1:
мова: українська
кодек: 2.0
бітрейт: 192 кб/с

Аудіо # 2:
мова: англійська
кодек: 5.1
бітрейт: 384 кб/с

Аудіо # 3:
мова: англійська
кодек: 5.1
бітрейт: 384 кб/с

Аудіо # 4:
мова: англійська
кодек: 2.0
бітрейт: 192 кб/с

Аудіо # 5:
мова: відсутня( інтершум )
кодек: 5.1
бітрейт: 448 кб/с
Тривалість:
03:05:51
Про файл:
General
Complete name : F1.2019.09.22.Singapore.Race.1080p.HDTV.Ukr.3xEng.Int.
Format :
Format version : Version 4
File size : 24.2 GiB
Duration : 3 h 5 min
Overall bit rate mode : Variable
Overall bit rate : 18.6 Mb/s
Movie name : F1.2019.09.22.Singapore.Race.1080p.HDTV.Ukr.3xEng.Int
Encoded date : UTC 2019-09-24 15:48:38
Writing application : v30.1.0 ('Forever And More') 64-bit
Writing library : libebml v1.3.6 + v1.4.9
Cover : Yes
Attachments : cover.jpg

Video
ID : 1
Format : AVC
Format/Info : Advanced Video Codec
Format profile : High 4:2:[email protected]
Format settings : CABAC / 4 Ref Frames
Format settings, CABAC : Yes
Format settings, RefFrames : 4 frames
Format settings, GOP : M=4, N=20
Codec ID : V_MPEG4/ISO/AVC
Duration : 3 h 5 min
Bit rate mode : Variable
Bit rate : 17.0 Mb/s
Maximum bit rate : 40.0 Mb/s
Width : 1 920 pixels
Height : 1 080 pixels
Display aspect ratio : 16:9
Frame rate mode : Variable
Frame rate : 50.000 FPS
Original frame rate : 25.000 FPS
Color space : YUV
Chroma subsampling : 4:2:2
Bit depth : 10 bits
Scan type : Interlaced
Scan type, store method : Separated fields
Scan order : Top Field First
Bits/(Pixel*Frame) : 0.164
Stream size : 22.1 GiB (91%)
Default : Yes
Forced : No
Color range : Limited
Color primaries : BT.709
Transfer characteristics : BT.709
Matrix coefficients : BT.709

Audio #1
ID : 2
Format : AC-3
Format/Info : Audio Coding 3
Commercial name : Dolby Digital
Codec ID : A_AC3
Duration : 3 h 5 min
Bit rate mode : Constant
Bit rate : 192 kb/s
Channel(s) : 2 channels
Channel layout : L R
Sampling rate : 48.0 kHz
Frame rate : 31.250 FPS (1536 SPF)
Bit depth : 16 bits
Compression mode : Lossy
Delay relative to video : 190 ms
Stream size : 255 MiB (1%)
Language : Ukrainian
Service kind : Complete Main
Default : Yes
Forced : No

Audio #2
ID : 3
Format : AC-3
Format/Info : Audio Coding 3
Commercial name : Dolby Digital
Codec ID : A_AC3
Duration : 3 h 5 min
Bit rate mode : Constant
Bit rate : 384 kb/s
Channel(s) : 6 channels
Channel layout : L R C LFE Ls Rs
Sampling rate : 48.0 kHz
Frame rate : 31.250 FPS (1536 SPF)
Bit depth : 16 bits
Compression mode : Lossy
Delay relative to video : 190 ms
Stream size : 510 MiB (2%)
Language : English
Service kind : Complete Main
Default : No
Forced : No

Audio #3
ID : 4
Format : AC-3
Format/Info : Audio Coding 3
Commercial name : Dolby Digital
Codec ID : A_AC3
Duration : 3 h 5 min
Bit rate mode : Constant
Bit rate : 384 kb/s
Channel(s) : 6 channels
Channel layout : L R C LFE Ls Rs
Sampling rate : 48.0 kHz
Frame rate : 31.250 FPS (1536 SPF)
Bit depth : 16 bits
Compression mode : Lossy
Delay relative to video : 190 ms
Stream size : 510 MiB (2%)
Language : English
Service kind : Complete Main
Default : No
Forced : No

Audio #4
ID : 5
Format : AC-3
Format/Info : Audio Coding 3
Commercial name : Dolby Digital
Codec ID : A_AC3
Duration : 3 h 5 min
Bit rate mode : Constant
Bit rate : 192 kb/s
Channel(s) : 2 channels
Channel layout : L R
Sampling rate : 48.0 kHz
Frame rate : 31.250 FPS (1536 SPF)
Bit depth : 16 bits
Compression mode : Lossy
Delay relative to video : 190 ms
Stream size : 255 MiB (1%)
Language : English
Service kind : Complete Main
Default : No
Forced : No

Audio #5
ID : 6
Format : AC-3
Format/Info : Audio Coding 3
Commercial name : Dolby Digital
Codec ID : A_AC3
Duration : 3 h 5 min
Bit rate mode : Constant
Bit rate : 448 kb/s
Channel(s) : 6 channels
Channel layout : L R C LFE Ls Rs
Sampling rate : 48.0 kHz
Frame rate : 31.250 FPS (1536 SPF)
Bit depth : 16 bits
Compression mode : Lossy
Delay relative to video : 190 ms
Stream size : 596 MiB (2%)
Service kind : Complete Main
Default : No
Forced : No
Скріншоти:




Дякую Shewa1 за допомогу в створені реліза


Золотий реліз (завантажене не впливає на рейтинг)
 Трекер:    Зареєстрований   

Завантажити / скачати торрент



відео для новачків



 Зареєстрований:   2019-09-24 18:22
 Розмір:   24.2 GB 
 Оцінка:   9.9/10 (Голосів: 9)
   
armogun 
Попереджень: 1
Попереджень: 1 


З нами з: 04.05.13
Востаннє: 31.10.20
Повідомлень: 701

2019-09-27 18:58  
Шо воно наморозило про симулятори... різниця на швидких трасах кваліфікації і гонці 9 сек це норма. Як граєш не на рівні про чи експерт то закрий тріпало
toropov 
Новенький


З нами з: 23.09.16
Востаннє: 27.08.20
Повідомлень: 1

2019-09-28 13:14  
armogun

ти про кого "воно"?

ALPHAPRO 
Новенький


З нами з: 26.10.16
Востаннє: 31.10.20
Повідомлень: 6

2019-11-09 17:42  
Допоможіть завантажити!!! Станьте на роздачу!!!
Ваш часовий пояс: GMT + 2 Години

Нова тема   Відповісти