Посилка / The Box (2009) AVC 2хUkr | Sub Eng

Нові коментарі

Нова тема   Відповісти
Автор Повідомлення
Maters 
Відео Гуртом - підтримка та поширення
Відео Гуртом - підтримка та поширення


З нами з: 27.03.12
Востаннє: 23.10.19
Повідомлень: 1758

2019-09-24 00:59  
Посилка / The Box (2009) AVC 2хUkr | Sub Eng

Посилка / The Box (2009) AVC 2хUkr | Sub Eng


Жанр: фентезі, трилер, драма, детектив
Країна: США



Кінокомпанія: Warner Bros., Radar Pictures, Media Rights Capital
Режисер: Річард Келлі
Актори: Джеймс Мерсден, Кемерон Діаз, Френк Ланджелла, Ліза К. Віатт, Джілліан Джейкобс, Майкл Зеген

Сюжет:
Шлюб Артура і Норми тріщить по швах: вони постійно сваряться, до того ж у молодій сім'ї фінансова скрута. Несподівано подружжя стає щасливими володарями коробочки з кнопкою.
Їм пояснюють що, якщо натиснути на кнопку, вони негайно отримають 1 млн. доларів. Одна тонкість — у цей момент десь помре абсолютно незнайома їм людина...


Тривалість: 01:55:23
Якість:
Відео:
кодек:
розмір кадру: 1024 х 432
бітрейт: 1850 кб/с

Аудіо # 1:
мова: українська
переклад: багатоголосий закадровий
кодек: 2.0
бітрейт: 192 кб/с

Аудіо # 2:
мова: українська
переклад: багатоголосий закадровий
кодек: 2.0
бітрейт: 192 кб/с

Субтитри:
мова: англійська
тип: програмні (м'які)
формат: *.srt
Скріншоти




Info
General
Unique ID : 259417135468983428346417275287890868731 (0xC329EC450DF1797AA50FEE1963F0B9FB)
Complete name : E:\Films\Драми\Посилка [2хUkr].
Format :
Format version : Version 4
File size : 1.80 GiB
Duration : 1 h 55 min
Overall bit rate : 2 234 kb/s
Movie name : Посилка / The Box (2009) AVC 2хUkr Sub Eng.
Encoded date : UTC 2019-09-23 21:53:21
Writing application : v35.0.0 ('All The Love In The World') 64-bit
Writing library : libebml v1.3.9 + v1.5.2
Cover : Yes
Attachments : cover.jpg

Video
ID : 1
Format : AVC
Format/Info : Advanced Video Codec
Format profile : [email protected]
Format settings : CABAC / 16 Ref Frames
Format settings, CABAC : Yes
Format settings, Reference : 16 frames
Codec ID : V_MPEG4/ISO/AVC
Duration : 1 h 55 min
Bit rate : 1 850 kb/s
Width : 1 024 pixels
Height : 432 pixels
Display aspect ratio : 2.40:1
Frame rate mode : Constant
Frame rate : 23.976 (24000/1001) FPS
Color space : YUV
Chroma subsampling : 4:2:0
Bit depth : 8 bits
Scan type : Progressive
Bits/(Pixel*Frame) : 0.174
Stream size : 1.49 GiB (83%)
Writing library : core 157 r2935 545de2f
Encoding settings : cabac=1 / ref=16 / deblock=1:-1:-1 / analyse=0x3:0x133 / me=umh / subme=10 / psy=1 / psy_rd=1.00:0.15 / mixed_ref=1 / me_range=24 / chroma_me=1 / trellis=2 / 8x8dct=1 / cqm=0 / deadzone=21,11 / fast_pskip=1 / chroma_qp_offset=-3 / threads=13 / lookahead_threads=2 / sliced_threads=0 / nr=0 / decimate=1 / interlaced=0 / bluray_compat=0 / constrained_intra=0 / bframes=8 / b_pyramid=2 / b_adapt=2 / b_bias=0 / direct=3 / weightb=1 / open_gop=0 / weightp=2 / keyint=240 / keyint_min=24 / scenecut=40 / intra_refresh=0 / rc_lookahead=60 / rc=2pass / mbtree=1 / bitrate=1850 / ratetol=1.0 / qcomp=0.60 / qpmin=0 / qpmax=69 / qpstep=4 / cplxblur=20.0 / qblur=0.5 / vbv_maxrate=62500 / vbv_bufsize=78125 / nal_hrd=none / filler=0 / ip_ratio=1.40 / aq=1:1.00
Default : Yes
Forced : No
Color range : Limited
Color primaries : BT.709
Transfer characteristics : BT.709
Matrix coefficients : BT.709

Audio #1
ID : 2
Format : AC-3
Format/Info : Audio Coding 3
Commercial name : Dolby Digital
Codec ID : A_AC3
Duration : 1 h 55 min
Bit rate mode : Constant
Bit rate : 192 kb/s
Channel(s) : 2 channels
Channel layout : L R
Sampling rate : 48.0 kHz
Frame rate : 31.250 FPS (1536 SPF)
Bit depth : 16 bits
Compression mode : Lossy
Delay relative to video : -21 ms
Stream size : 158 MiB (9%)
Title : UKR (NLO-TV)
Language : Ukrainian
Service kind : Complete Main
Default : Yes
Forced : Yes

Audio #2
ID : 3
Format : AC-3
Format/Info : Audio Coding 3
Commercial name : Dolby Digital
Codec ID : A_AC3
Duration : 1 h 55 min
Bit rate mode : Constant
Bit rate : 192 kb/s
Channel(s) : 2 channels
Channel layout : L R
Sampling rate : 48.0 kHz
Frame rate : 31.250 FPS (1536 SPF)
Bit depth : 16 bits
Compression mode : Lossy
Delay relative to video : -21 ms
Stream size : 158 MiB (9%)
Title : UKR (ICTV)
Language : Ukrainian
Service kind : Complete Main
Default : No
Forced : No

Text
ID : 4
Format : UTF-8
Codec ID : S_TEXT/UTF8
Codec ID/Info : UTF-8 Plain Text
Duration : 1 h 46 min
Bit rate : 49 b/s
Count of elements : 1098
Stream size : 38.3 KiB (0%)
Language : English
Default : No
Forced : No
Джерело:
Особиста оцінка: 7 - на скільки пам'ятаю - непоганий фільм, давно бачив )


 Трекер:    Зареєстрований   

Завантажити / скачати фільм українською



відео для новачків



 Зареєстрований:   2019-09-24 00:59
 Розмір:   1.8 GB 
 Оцінка фільму:   9.1/10 (Голосів: 13)
   
Інші релізи
   Посилка / The Box (2009) 1080p 2хUkr/Eng | Sub Eng drop_plz  2 / 0   7.74 GB   2018-09-04 12:21 
   Посилка / The Box (2009) 2хUkr patriot2305  1 / 0   1.46 GB   2014-03-07 09:13 
   Посилка / The Box (2009) Ukr/Eng antik_2008  1 / 0   2.03 GB   2011-12-31 02:42 
nazariy-UA 
Новенький


З нами з: 12.05.11
Востаннє: 21.10.19
Повідомлень: 18

2019-09-24 09:07  
«натискати», а не «натискувати». Виправіть, будь ласка.
Jani307 
Свій


З нами з: 09.06.14
Востаннє: 22.10.19
Повідомлень: 111

2019-09-24 20:13  
Тоді вже краще "натиснути".
Nickolassssssss 
Поважний учасник


З нами з: 31.05.14
Востаннє: 22.10.19
Повідомлень: 155

2019-09-25 16:48  
Гарний фільм, рекомендую.
Від самого початку я здогадався, чим все закінчиться, проте я уявлення не мав, яким саме чином це відбудеться і що саме стоїть за всім цим. Але сама угода мені не сподобалась, адже не всі умови було озвучено, що не є справедливим.
Дуже порадувала гра акторів, особливо в фінальних сценах.

coldice 
Поважний учасник


З нами з: 20.03.10
Востаннє: 22.10.19
Повідомлень: 150

2019-09-25 18:36  
Happy так розумію що це екранізація оповідання "Лаксіанський ключ" Роберта Шеклі
porto12 
Поважний учасник


З нами з: 28.10.08
Востаннє: 23.10.19
Повідомлень: 197

2019-09-25 18:54  
coldice написано:
так розумію що це екранізація оповідання "Лаксіанський ключ" Роберта Шеклі
Happy Не вгадали, бо це вже друга екранізація оповідання Річарда Метісона 1970 року "Кнопка, кнопка". Перша екранзіація - це 50-ий епізод "Сутінкової зони", який вишов в ефір у 1986 році.
coldice 
Поважний учасник


З нами з: 20.03.10
Востаннє: 22.10.19
Повідомлень: 150

2019-09-26 13:44  
porto12 написано:
Happy Не вгадали, бо це вже друга екранізація оповідання Річарда Метісона 1970 року "Кнопка, кнопка". Перша екранзіація - це 50-ий епізод "Сутінкової зони", який вишов в ефір у 1986 році.

Правду кажете, я був певен що йдеться про якусь коротку фантастичну історію, але чомусь подумав на Шеклі...

Ваш часовий пояс: GMT + 2 Години

Нова тема   Відповісти