Хлопці не плачуть / Boys Don't Cry (1999) AVC Ukr/Eng | Sub Eng

Нові коментарі

Нова тема   Відповісти
Автор Повідомлення
Arsenfpu 
Відео Гуртом - фільмокрай
Відео Гуртом - фільмокрай


З нами з: 30.04.09
Востаннє: 22.11.19
Повідомлень: 6241

2019-09-23 21:42  
Хлопці не плачуть / Boys Don't Cry (1999) AVC Ukr/Eng | Sub Eng

Хлопці не плачуть / Boys Don't Cry (1999) AVC Ukr/Eng | Sub Eng


Жанр: драма, біографічний
Країна: США



Кінокомпанія: Fox Searchlight Pictures, The Independent Film Channel Productions, Killer Films
Режисер: Кімберлі Пірс
Актори: Хіларі Свонк, Клое Севіньі, Пітер Сарсгаард, Брендон Секстон ІІІ, Алісія Горансон, Елісон Фолланд, Жанетта Арнетт, Роб Кемпбелл, Метт МакГрейз

Сюжет:
Дія відбувається в одному з маленьких містечок в Небрасці. Реальні події, на яких заснований фільм, такі: Брендон Тваней був молодим чоловіком, народженим жінкою, але який відчував себе чоловіком з раннього віку. Ще підлітком Брендон представлявся місцевим дівчатам в Лінкольні як хлопець. Потім він переїхав у Фолз-сіті, де він завоював репутацію баболюба. Брендон зустрічався з декількома місцевими дівчатами, і всі вони потім описували його як "ідеального джентльмена" і "кращого друга" зі всіх, які у них коли не-будь були. Особливо тісні відносини у нього були з Ланою Тісдел, через що у нього був конфлікт з її колишнім коханцем, Джоном Лоттером. Коли з’явилися чутки про двозначність його статі, Джон і його друг, Марвін Томас Ніссен, представили Брендона Лані як жінку і потім згвалтували його(її). Три дні опісля Брендона і ще двох чоловік знайшли на покинутій фермі, застрелених. Лоттер і Ніссен були арештовані і осуджені за потрійне вбивство..


Тривалість: 01:58:33
Якість:
Відео:
кодек:
розмір кадру: 1 056 х 572
бітрейт: 2 598 кб/с

Аудіо # 1:
мова: українська
переклад: двоголосий закадровий (з 5.1)
кодек: 2.0
бітрейт: 192 кб/с

Аудіо # 2:
мова: англійська
переклад: оригінал
кодек: 2.0
бітрейт: 192 кб/с

Субтитри:
мова: українська (тільки на моменти без перекладу)
тип: програмні (м'які)
формат: *.srt

Субтитри:
мова: англійська
тип: програмні (м'які)
формат: *.srt
Про файл
General
Unique ID : 23907628369650658836061604015019222332 (0x11FC7115B7C9C63A915DCA7383C5653C)
Complete name : C:\Boys Don't Cry (1999) [Ukr,Eng] AVC [Hurtom].
Format :
Format version : Version 4 / Version 2
File size : 2.47 GiB
Duration : 1 h 58 min
Overall bit rate : 2 985 kb/s
Movie name : Хлопці не плачуть / Boys Don't Cry (1999)
Encoded by : Pankrat7
Released date : March 14 th 2011
Encoded date : UTC 2019-09-23 19:19:27
Writing application : v21.0.0 ('Tardigrades Will Inherit The Earth') 32-bit
Writing library : libebml v1.3.5 + v1.4.8
Cover : Yes
Comment : // (Source: AVC; 1920x1080 (16:9); 23,976 fps, ~29519 kbps)
Attachments : cover.jpg

Video
ID : 1
Format : AVC
Format/Info : Advanced Video Codec
Format profile : [email protected]
Format settings, CABAC : Yes
Format settings, ReFrames : 9 frames
Codec ID : V_MPEG4/ISO/AVC
Duration : 1 h 58 min
Bit rate : 2 598 kb/s
Width : 1 056 pixels
Height : 572 pixels
Display aspect ratio : 1.85:1
Frame rate mode : Constant
Frame rate : 23.976 (24000/1001) FPS
Color space : YUV
Chroma subsampling : 4:2:0
Bit depth : 8 bits
Scan type : Progressive
Bits/(Pixel*Frame) : 0.179
Stream size : 2.15 GiB (87%)
Writing library : core 114 r1913kMod 5fd3dce
Encoding settings : cabac=1 / ref=9 / deblock=1:-4:-1 / analyse=0x3:0x113 / me=umh / subme=10 / psy=1 / fade_compensate=0.00 / psy_rd=1.12:0.38 / mixed_ref=1 / me_range=24 / chroma_me=1 / trellis=2 / 8x8dct=1 / cqm=0 / deadzone=21,11 / fast_pskip=1 / chroma_qp_offset=-4 / threads=6 / sliced_threads=0 / nr=0 / decimate=1 / interlaced=0 / constrained_intra=0 / bframes=10 / b_pyramid=2 / b_adapt=2 / b_bias=0 / direct=3 / weightb=1 / open_gop=0 / weightp=2 / keyint=250 / keyint_min=23 / scenecut=40 / intra_refresh=0 / rc_lookahead=60 / rc=crf / mbtree=1 / crf=19.9000 / qcomp=0.75 / qpmin=0 / qpmax=69 / qpstep=4 / ip_ratio=1.40 / aq=2:1.00 / zones=163481,170529,q=35
Language : English
Default : Yes
Forced : No
Color range : Limited
Matrix coefficients : BT.709

Audio #1
ID : 2
Format : AC-3
Format/Info : Audio Coding 3
Mode extension : CM (complete main)
Format settings, Endianness : Big
Codec ID : A_AC3
Duration : 1 h 58 min
Bit rate mode : Constant
Bit rate : 192 kb/s
Channel(s) : 2 channels
Channel positions : Front: L R
Sampling rate : 48.0 kHz
Frame rate : 31.250 FPS (1536 spf)
Compression mode : Lossy
Stream size : 163 MiB (6%)
Title : Новий
Language : Ukrainian
Default : Yes
Forced : Yes

Audio #2
ID : 3
Format : AC-3
Format/Info : Audio Coding 3
Mode extension : CM (complete main)
Format settings, Endianness : Big
Codec ID : A_AC3
Duration : 1 h 58 min
Bit rate mode : Constant
Bit rate : 192 kb/s
Channel(s) : 2 channels
Channel positions : Front: L R
Sampling rate : 48.0 kHz
Frame rate : 31.250 FPS (1536 spf)
Compression mode : Lossy
Stream size : 163 MiB (6%)
Language : English
Default : No
Forced : No

Text #1
ID : 4
Format : UTF-8
Codec ID : S_TEXT/UTF8
Codec ID/Info : UTF-8 Plain Text
Duration : 1 h 12 min
Bit rate : 7 b/s
Count of elements : 57
Stream size : 3.75 KiB (0%)
Title : Ukr
Language : Ukrainian
Default : Yes
Forced : Yes

Text #2
ID : 5
Format : UTF-8
Codec ID : S_TEXT/UTF8
Codec ID/Info : UTF-8 Plain Text
Duration : 1 h 56 min
Bit rate : 46 b/s
Count of elements : 1273
Stream size : 39.9 KiB (0%)
Title : English
Language : English
Default : No
Forced : No

Menu
00:00:00.000 : en:1. The New Boy (Main Titles)
00:05:25.158 : en:2. Lincoln, Nebraska 1993
00:11:20.763 : en:3. Falls City
00:14:44.425 : en:4. Lana
00:18:11.465 : en:5. Bumper-Skiing
00:22:19.255 : en:6. Lana's Life
00:29:05.410 : en:7. The Morning Routine
00:32:27.821 : en:8. Lana's Family
00:37:29.038 : en:9. Wall People
00:42:29.630 : en:10. No Impulse Control
00:47:02.111 : en:11. A Kiss Goodbye
00:51:19.660 : en:12. Brandon's Choise
00:54:28.515 : en:13. Lovers
01:00:32.796 : en:14. Brandon's Birthday
01:06:00.832 : en:15. Our Own Trailer Park
01:07:50.275 : en:16. A Messed-up Chick
01:12:42.608 : en:17. Where's Lana?
01:17:01.075 : en:18. Are You a Girl?
01:21:01.273 : en:19. The Full Flesh
01:25:02.097 : en:20. The Rape
01:38:25.983 : en:21. Together
01:46:40.644 : en:22. John's Justice
01:50:32.668 : en:23. I'll Be Waiting...
01:53:38.437 : en:24. Epilogue (End Titles)
Скріншоти














Джерело:
За українську доріжку та субтитри дякую п. Mr Yuran, imonko, dvorsky
За постер дякую пану mrdavis
Особиста оцінка: не дивився


Срібний реліз (на рейтинг впливає 50% завантаженого)
 Трекер:    Зареєстрований   

Завантажити / скачати фільм українською



відео для новачків



 Зареєстрований:   2019-09-23 21:42
 Розмір:   2.47 GB 
 Оцінка фільму:   9.7/10 (Голосів: 3)
   
Інші релізи
Ваш часовий пояс: GMT + 2 Години

Нова тема   Відповісти