Ясновидець (Сезон 2) / Psych (Season 2) (2007-2008) 720p Ukr/Eng

Нові коментарі

Нова тема   Відповісти
Автор Повідомлення
Anonymous 







2019-09-23 19:13  
Ясновидець (Сезон 2) / Psych (Season 2) (2007-2008) 720p Ukr/Eng




Ясновидець (Сезон 2) / Psych (Season 2) (2007-2008) 720p Ukr/Eng


Жанр: комедія, містика, детектив, кримінальний
Країна: США



Кінокомпанія: USA Network
Актори: Джеймс Родай, Дьюлі Хілл, Меггі Лоусон, Тімоті Омандсон, Кірстен Нелсон.

Сюжет:
Головний герой Шон Спенсер під час перегляду новин дізнається хто пограбував магазин і повідомляє про це поліції. Прийшовши до відділку за винагородою копи йому не вірять і думають, що він був спільником. Тут Шону доводиться вдати ніби він ясновидець, щоб його не заарештували, але насправді ніяких паранормальних здібностей в нього нема. У дитинстві його батько поліцейський навчив помічати різні деталі на які звичайні люди не звертають увагу і навчив детективним навичкам. Надалі він зі своїм другом Ґасом відкриють приватне детективне агентство та будуть вдавати ніби він дійсно ясновидець та допомагати поліції розкривати справи.


Тривалість: 1 серія: 45хв (цілком серій: 16 з 16)
Перелік серій
1.American Duos
2.65 Million Years Off
3.Psy vs. Psy
4.Zero to Murder in Sixty Seconds
5.And Down the Stretch Comes Murder
6.Meat Is Murder, but Murder Is Also Murder
7.If You're So Smart, Then Why Are You Dead?
8.Rob-a-Bye Baby
9.Bounty Hunters!
10.Gus' Dad May Have Killed an Old Guy
11.There's Something About Mira
12.The Old and the Restless
13.Lights, Camera...Homicidio
14.Dis-Lodged
15.Black and Tan: A Crime of Fashion
16.Shawn (and Gus) of the Dead
Якість:
Відео:
кодек:
розмір кадру: 1280 х 720
бітрейт: 4100 кб/с

Аудіо # 1:
мова: українська
переклад: багатоголосий закадровий
кодек: 2.0
бітрейт: 192 кб/с

Джерело озвучення:


Аудіо # 2:
мова: англійська
переклад: оригінал
кодек: AC-3 5.1
бітрейт: 384
Info
Video
ID : 1
Format : AVC
Format/Info : Advanced Video Codec
Format profile : [email protected]
Format settings : 2 Ref Frames
Format settings, CABAC : No
Format settings, Reference : 2 frames
Codec ID : V_MPEG4/ISO/AVC
Duration : 43 min 8 s
Bit rate : 4 059 kb/s
Width : 1 280 pixels
Height : 720 pixels
Display aspect ratio : 16:9
Frame rate mode : Constant
Frame rate : 23.976 (23976/1000) FPS
Color space : YUV
Chroma subsampling : 4:2:0
Bit depth : 8 bits
Scan type : Progressive
Bits/(Pixel*Frame) : 0.184
Stream size : 1.22 GiB (87%)
Language : English
Default : Yes
Forced : No
Color range : Limited
Color primaries : BT.709
Transfer characteristics : BT.709
Matrix coefficients : BT.709

Audio #1
ID : 2
Format : AC-3
Format/Info : Audio Coding 3
Commercial name : Dolby Digital
Codec ID : A_AC3
Duration : 43 min 8 s
Bit rate mode : Constant
Bit rate : 192 kb/s
Channel(s) : 2 channels
Channel layout : L R
Sampling rate : 48.0 kHz
Frame rate : 31.250 FPS (1536 SPF)
Bit depth : 16 bits
Compression mode : Lossy
Stream size : 59.2 MiB (4%)
Title : MVO - Індиго ТВ
Language : Ukrainian
Service kind : Complete Main
Default : Yes
Forced : No

Audio #2
ID : 3
Format : AC-3
Format/Info : Audio Coding 3
Commercial name : Dolby Digital
Codec ID : A_AC3
Duration : 43 min 8 s
Bit rate mode : Constant
Bit rate : 384 kb/s
Channel(s) : 6 channels
Channel layout : L R C LFE Ls Rs
Sampling rate : 48.0 kHz
Frame rate : 31.250 FPS (1536 SPF)
Bit depth : 16 bits
Compression mode : Lossy
Stream size : 118 MiB (8%)
Language : English
Service kind : Complete Main
Default : No
Forced : No
скріншоти





Подяка: пану, що побажав залишитися анонімним за запис сирих доріжок.
Джерело:
Особиста оцінка: 10 - без зайвих вагань рекомендую всім!


Бронзовий реліз (на рейтинг впливає 75% завантаженого)
 Трекер:    Зареєстрований   

Завантажити / скачати серіал українською



відео для новачків



 Зареєстрований:   2019-09-23 19:13
 Розмір:   22.39 GB 
 Оцінка серіалу:   8.4/10 (Голосів: 12)
   
Ваш часовий пояс: GMT + 2 Години

Нова тема   Відповісти