Сім наречених для семи братів / Seven Brides For Seven Brothers (1954) AVC Ukr/Eng | Sub Eng

Нові коментарі

Нова тема   Відповісти
Автор Повідомлення
Arsenfpu 
Відео Гуртом - фільмокрай
Відео Гуртом - фільмокрай


З нами з: 30.04.09
Востаннє: 22.11.19
Повідомлень: 6241

2019-09-23 18:46  
Сім наречених для семи братів / Seven Brides For Seven Brothers (1954) AVC Ukr/Eng | Sub Eng

Сім наречених для семи братів / Seven Brides For Seven Brothers (1954) AVC Ukr/Eng | Sub Eng


Жанр: мюзикл, драма, мелодрама, комедія, вестерн
Країна: США



Кінокомпанія: Metro-Goldwyn-Mayer (MGM)
Режисер: Стенлі Донен
Актори: Говард Кіл, Джеф Річардс, Рас Темблін, Томмі Рол, Марк Плат, Мет Метокс, Жак д'Амбуаз, Джейн Павел, Джулі Ньюмар, Ненсі Кілґес

Сюжет:
Семеро міцних хлопців живуть серед високих дерев дрімучого лісу Ореґони. Їх побут і вдача прості, а про пристойні манери і правила поведінки в суспільстві, вони взагалі не чули. Одного разу старший брат Адам приводить до їхнього "холостяцького барлогу" свою чарівну наречену. Міллі - вихована міська дівчина з міцними нервами і залізним характером. Їй судилося приборкати погану вдачу чоловічої компанії, навчити етикету і... допомогти хлопцям знайти своїх життєвих супутниць.


Тривалість: 01:42:01
Якість:
Відео:
кодек:
розмір кадру: 1024 х 400
бітрейт: 2 499 кб/с

Аудіо # 1:
мова: українська
переклад: двоголосий закадровий
кодек: 2.0
бітрейт: 192 кб/с

Аудіо # 2:
мова: англійська
переклад: оригінал
кодек: 2.0
бітрейт: 192 кб/с

Субтитри:
мова: англійська
тип: програмні (м'які)
формат: *.srt
Про файл
General
Unique ID : 92522615496677984981689897674586222714 (0x459B35236D0E58B49117D197CF48707A)
Complete name : C:\Seven Brides For Seven Brothers (1954) [Ukr,Eng] AVC [Hurtom].
Format :
Format version : Version 4 / Version 2
File size : 2.06 GiB
Duration : 1 h 42 min
Overall bit rate : 2 885 kb/s
Movie name : Сім наречених для семи братів / Seven Brides For Seven Brothers (1954)
Encoded date : UTC 2019-09-23 16:23:03
Writing application : v21.0.0 ('Tardigrades Will Inherit The Earth') 32-bit
Writing library : libebml v1.3.5 + v1.4.8
Cover : Yes
Attachments : cover.jpg

Video
ID : 1
Format : AVC
Format/Info : Advanced Video Codec
Format profile : [email protected]
Format settings, CABAC : Yes
Format settings, ReFrames : 4 frames
Codec ID : V_MPEG4/ISO/AVC
Duration : 1 h 42 min
Bit rate : 2 499 kb/s
Width : 1 024 pixels
Height : 400 pixels
Display aspect ratio : 2.560
Frame rate mode : Constant
Frame rate : 23.976 (24000/1001) FPS
Color space : YUV
Chroma subsampling : 4:2:0
Bit depth : 8 bits
Scan type : Progressive
Bits/(Pixel*Frame) : 0.254
Stream size : 1.78 GiB (87%)
Writing library : core 157 r2935 545de2f
Encoding settings : cabac=1 / ref=3 / deblock=1:-1:-1 / analyse=0x3:0x113 / me=hex / subme=7 / psy=1 / psy_rd=1.00:0.15 / mixed_ref=1 / me_range=16 / chroma_me=1 / trellis=1 / 8x8dct=1 / cqm=0 / deadzone=21,11 / fast_pskip=1 / chroma_qp_offset=-3 / threads=12 / lookahead_threads=2 / sliced_threads=0 / nr=0 / decimate=1 / interlaced=0 / bluray_compat=0 / constrained_intra=0 / bframes=3 / b_pyramid=2 / b_adapt=1 / b_bias=0 / direct=1 / weightb=1 / open_gop=0 / weightp=2 / keyint=240 / keyint_min=23 / scenecut=40 / intra_refresh=0 / rc_lookahead=40 / rc=2pass / mbtree=1 / bitrate=2499 / ratetol=1.0 / qcomp=0.60 / qpmin=0 / qpmax=69 / qpstep=4 / cplxblur=20.0 / qblur=0.5 / ip_ratio=1.40 / aq=1:1.00
Default : Yes
Forced : No

Audio #1
ID : 2
Format : AC-3
Format/Info : Audio Coding 3
Mode extension : CM (complete main)
Format settings, Endianness : Big
Codec ID : A_AC3
Duration : 1 h 42 min
Bit rate mode : Constant
Bit rate : 192 kb/s
Channel(s) : 2 channels
Channel positions : Front: L R
Sampling rate : 48.0 kHz
Frame rate : 31.250 FPS (1536 spf)
Compression mode : Lossy
Stream size : 140 MiB (7%)
Title : 1+1
Language : Ukrainian
Default : Yes
Forced : Yes

Audio #2
ID : 3
Format : AC-3
Format/Info : Audio Coding 3
Mode extension : CM (complete main)
Format settings, Endianness : Big
Codec ID : A_AC3
Duration : 1 h 42 min
Bit rate mode : Constant
Bit rate : 192 kb/s
Channel(s) : 2 channels
Channel positions : Front: L R
Sampling rate : 48.0 kHz
Frame rate : 31.250 FPS (1536 spf)
Compression mode : Lossy
Stream size : 140 MiB (7%)
Language : English
Default : No
Forced : No

Text
ID : 4
Format : UTF-8
Codec ID : S_TEXT/UTF8
Codec ID/Info : UTF-8 Plain Text
Duration : 1 h 39 min
Bit rate : 64 b/s
Count of elements : 1567
Stream size : 47.0 KiB (0%)
Language : English
Default : Yes
Forced : No
Скріншоти














Джерело:
За матеріал для роботи дякую п. kryk-v.ya., Tanat13, omm
Особиста оцінка: не дивився


Срібний реліз (на рейтинг впливає 50% завантаженого)
 Трекер:    Зареєстрований   

Завантажити / скачати фільм українською



відео для новачків



 Зареєстрований:   2019-09-23 18:46
 Розмір:   2.06 GB 
 Оцінка фільму:   10/10 (Голосів: 6)
   
dreamer 
VIP


З нами з: 10.05.08
Востаннє: 22.11.19
Повідомлень: 537

2019-09-24 10:07  
щось дуже всього багато для однієї стрічки..й драма й мелодрама..вестерн..???
Місіс Хадсон 
Новенький


З нами з: 01.09.17
Востаннє: 20.11.19
Повідомлень: 6

2019-09-24 13:58  
Руді ірландці танцюють гопака. Це треба бачити!
Ваш часовий пояс: GMT + 2 Години

Нова тема   Відповісти