Гроші вирішують все / Money Talks (1997) AVC 2xUkr/Eng | Sub Eng

Нові коментарі

Нова тема   Відповісти
Автор Повідомлення
Arsenfpu 
Відео Гуртом - фільмокрай
Відео Гуртом - фільмокрай


З нами з: 30.04.09
Востаннє: 20.10.19
Повідомлень: 6153

2019-09-22 22:04  
Гроші вирішують все / Money Talks (1997) AVC 2xUkr/Eng | Sub Eng

Гроші вирішують все / Money Talks (1997) AVC 2xUkr/Eng | Sub Eng


Жанр: комедія, бойовик, трилер, кримінальний
Країна: США



Кінокомпанія: New Line Cinema, Sheen/Michaels Entertainment
Режисер: Брет Ретнер
Актори: Кріс Такер, Чарлі Шин, Гезер Локлір, Еліз Ніл, Пол Сорвіно, Девід Лі МакЛейн, Вік Ферейра, Ґарі Бріґс, Ларі Генкін, Нейтан Андерсон

Сюжет:
Дрібний шахрай Френклін Гетчет раптово стає скандально відомим через підозру у вбивстві поліцейських. Він розшукується всією поліцією Сполучених Штатів. Єдиний, хто може йому допомогти, це журналіст-невдаха Джеймс Рассел. Тепер вони удвох перші в списку найрозшукуваніших злочинців...


Тривалість: 01:35:43
Якість:
Відео:
кодек:
розмір кадру: 1 024 х 428
бітрейт: 2300 кб/с

Аудіо # 1:
мова: українська
переклад: багатоголосий закадровий
кодек: 2.0
бітрейт: 192 кб/с

Аудіо # 2:
мова: українська
переклад: двоголосий закадровий
кодек: 2.0
бітрейт: 192 кб/с
примітка: бажано мати кращий запис

Аудіо # 3:
мова: англійська
переклад: оригінал
кодек: 2.0
бітрейт: 192 кб/с

Субтитри:
мова: англійська
тип: програмні (м'які)
формат: *.srt
Про файл
eneral
Unique ID : 228013023369804970154447760833017435938 (0xAB89B600486F16F5C44237D0FCBE5722)
Complete name : C:\Money Talks (1997) [2xUkr,Eng] AVC [Hurtom].
Format :
Format version : Version 4 / Version 2
File size : 1.92 GiB
Duration : 1 h 35 min
Overall bit rate : 2 877 kb/s
Movie name : Гроші вирішують все / Money Talks (1997)
Encoded date : UTC 2019-09-22 18:31:28
Writing application : v21.0.0 ('Tardigrades Will Inherit The Earth') 32-bit
Writing library : libebml v1.3.5 + v1.4.8
Cover : Yes
Attachments : cover.jpg

Video
ID : 1
Format : AVC
Format/Info : Advanced Video Codec
Format profile : [email protected]
Format settings, CABAC : Yes
Format settings, ReFrames : 11 frames
Codec ID : V_MPEG4/ISO/AVC
Duration : 1 h 35 min
Bit rate : 2 300 kb/s
Width : 1 024 pixels
Height : 428 pixels
Display aspect ratio : 2.40:1
Frame rate mode : Constant
Frame rate : 23.976 FPS
Color space : YUV
Chroma subsampling : 4:2:0
Bit depth : 8 bits
Scan type : Progressive
Bits/(Pixel*Frame) : 0.219
Stream size : 1.54 GiB (80%)
Writing library : core 146 r2538 121396c
Encoding settings : cabac=1 / ref=11 / deblock=1:-3:-3 / analyse=0x3:0x133 / me=umh / subme=10 / psy=1 / psy_rd=1.00:0.15 / mixed_ref=1 / me_range=32 / chroma_me=1 / trellis=2 / 8x8dct=1 / cqm=0 / deadzone=21,11 / fast_pskip=0 / chroma_qp_offset=-3 / threads=12 / lookahead_threads=2 / sliced_threads=0 / nr=0 / decimate=0 / interlaced=0 / bluray_compat=0 / constrained_intra=0 / bframes=8 / b_pyramid=2 / b_adapt=2 / b_bias=0 / direct=3 / weightb=1 / open_gop=0 / weightp=2 / keyint=240 / keyint_min=23 / scenecut=40 / intra_refresh=0 / rc=2pass / mbtree=0 / bitrate=2300 / ratetol=1.0 / qcomp=0.60 / qpmin=0 / qpmax=69 / qpstep=4 / cplxblur=20.0 / qblur=0.5 / ip_ratio=1.40 / pb_ratio=1.30 / aq=3:0.90
Language : English
Default : Yes
Forced : No

Audio #1
ID : 2
Format : AC-3
Format/Info : Audio Coding 3
Mode extension : CM (complete main)
Format settings, Endianness : Big
Codec ID : A_AC3
Duration : 1 h 35 min
Bit rate mode : Constant
Bit rate : 192 kb/s
Channel(s) : 2 channels
Channel positions : Front: L R
Sampling rate : 48.0 kHz
Frame rate : 31.250 FPS (1536 spf)
Compression mode : Lossy
Stream size : 131 MiB (7%)
Title : Новий
Language : Ukrainian
Default : Yes
Forced : Yes

Audio #2
ID : 3
Format : AC-3
Format/Info : Audio Coding 3
Mode extension : CM (complete main)
Format settings, Endianness : Big
Codec ID : A_AC3
Duration : 1 h 35 min
Bit rate mode : Constant
Bit rate : 192 kb/s
Channel(s) : 2 channels
Channel positions : Front: L R
Sampling rate : 48.0 kHz
Frame rate : 31.250 FPS (1536 spf)
Compression mode : Lossy
Stream size : 131 MiB (7%)
Title : 1+1
Language : Ukrainian
Default : No
Forced : No

Audio #3
ID : 4
Format : AC-3
Format/Info : Audio Coding 3
Mode extension : CM (complete main)
Format settings, Endianness : Big
Codec ID : A_AC3
Duration : 1 h 35 min
Bit rate mode : Constant
Bit rate : 192 kb/s
Channel(s) : 2 channels
Channel positions : Front: L R
Sampling rate : 48.0 kHz
Frame rate : 31.250 FPS (1536 spf)
Compression mode : Lossy
Stream size : 131 MiB (7%)
Language : English
Default : No
Forced : No

Text
ID : 5
Format : UTF-8
Codec ID : S_TEXT/UTF8
Codec ID/Info : UTF-8 Plain Text
Duration : 1 h 35 min
Bit rate : 81 b/s
Count of elements : 2174
Stream size : 57.0 KiB (0%)
Language : English
Default : No
Forced : No

Menu
00:00:00.000 : en:Main Title
00:02:45.000 : en:Busted at the Car Wash
00:07:16.000 : en:Behind Bars
00:11:01.000 : en:The Escape
00:16:33.000 : en:On The Run
00:22:11.000 : en:Teaming Up
00:27:59.000 : en:"Ebony Man of the Month"
00:29:36.000 : en:Vic Damone
00:34:19.000 : en:Sweeps Week
00:36:56.000 : en:House Call
00:41:43.000 : en:A Night on the Town
00:47:07.000 : en:Paying Aaron a Visit
00:53:05.000 : en:Breakfast with the In-Laws
00:57:46.000 : en:Auto Auction
01:03:17.000 : en:Test Drive
01:07:41.000 : en:"It can't get no righter"
01:12:24.000 : en:Set Up at the Coliseum
01:15:15.000 : en:"Where are the diamonds?"
01:16:56.000 : en:The Chase is On
01:20:54.000 : en:Light on the Subject
01:23:27.000 : en:Fire in the Press Box
01:26:07.000 : en:"Come and get it!"
01:28:28.000 : en:"Peace out"
01:31:04.000 : en:End Credits
Скріншоти














Джерело:
За запис з Нового дякую пану Bohdan237
За доріжку від 1+1 дякую п. servus12, omm
Особиста оцінка: класний фільм!


Срібний реліз (на рейтинг впливає 50% завантаженого)
 Трекер:    Зареєстрований   

Завантажити / скачати фільм українською



відео для новачків



 Зареєстрований:   2019-09-22 22:04
 Розмір:   1.92 GB 
 Оцінка фільму:   10/10 (Голосів: 7)
   
Інші релізи
Ваш часовий пояс: GMT + 2 Години

Нова тема   Відповісти