Блакитноокий Міккі / Mickey Blue Eyes (1999) AVC Ukr/Eng | Sub Eng

Нові коментарі

Нова тема   Відповісти
Автор Повідомлення
Anonymous 







2019-09-22 14:39  
Блакитноокий Міккі / Mickey Blue Eyes (1999) AVC Ukr/Eng | Sub Eng

Блакитноокий Міккі / Mickey Blue Eyes (1999) AVC Ukr/Eng | Sub Eng

Жанр: комедія, кримінальний, романтичний
Країна: США



Режисер: Келлі Макін / Kelly Makin
Актори: Г'ю Грант / Hugh Grant, Джеймс Каан / James Caan, Джинн Тріплгорн / Jeanne Tripplehorn, Берт Янг / Burt Young, Джеймс Фокс / James Fox, Джо Вітереллі / Joe Viterelli, Джеррі Бекер / Gerry Becker, Тоні Дарров / Tony Darrow, Пол Лазар / Paul Lazar та інші.

Сюжет:
Добропорядний Міккі Фелгейт закохався в дочку нью-йоркського гангстера Джину Вітале. Але дізнається про це, коли мова вже зайшла про весілля. Ця новина не сильно збентежила Міккі, та й Френк Вітале виявився милою людиною і зустрів майбутнього зятя з розпростертими обіймами. Міккі, можна сказати, був достроково прийнятий в «сім'ю». А раз так, то скоро здивований наречений виявився в епіцентрі подій, явно з незаконними властивостями. Він все зрозумів, але було пізно ...


Тривалість: 01:42:02
Якість: AVC

Відео:
кодек:
розмір кадру: 1024 x 576
бітрейт: 2675 кб/с

Аудіо # 1:
мова: українська
переклад: двоголосий закадровий
кодек: AC-3 5.1
бітрейт: 384 кб/с

Аудіо # 2:
мова: англійська
переклад: оригінал
кодек: AC-3 5.1
бітрейт: 384 кб/с

Субтитри # 1-2: (Full, SDH)
мова: англійська
тип: програмні (м'які)
формат: *.srt


Info
Код:
General
Unique ID                                : 117894255211928195235013865328531840286 (0x58B19B8E307DBD758FDD824132819D1E)
Complete name                            : Mickey Blue Eyes (1999) AVC [UKR_ENG] [Hurtom].
Format                                   :
Format version                           : Version 4
File size                                : 2.48 GiB
Duration                                 : 1 h 42 min
Overall bit rate                         : 3 453 kb/s
Movie name                               : Блакитноокий Міккі / Mickey Blue Eyes (1999)
Encoded date                             : UTC 2019-09-22 11:33:10
Writing application                      : v20.0.0 ('I Am The Sun') 64-bit
Writing library                          : libebml v1.3.5 + v1.4.8
Cover                                    : Yes
Attachments                              : Cover

Video
ID                                       : 1
Format                                   : AVC
Format/Info                              : Advanced Video Codec
Format profile                           : [email protected]
Format settings                          : CABAC / 12 Ref Frames
Format settings, CABAC                   : Yes
Format settings, Reference frames        : 12 frames
Codec ID                                 : V_MPEG4/ISO/AVC
Duration                                 : 1 h 42 min
Bit rate                                 : 2 675 kb/s
Width                                    : 1 024 pixels
Height                                   : 576 pixels
Display aspect ratio                     : 16:9
Frame rate mode                          : Constant
Frame rate                               : 23.976 (24000/1001) FPS
Color space                              : YUV
Chroma subsampling                       : 4:2:0
Bit depth                                : 8 bits
Scan type                                : Progressive
Bits/(Pixel*Frame)                       : 0.189
Stream size                              : 1.93 GiB (78%)
Title                                    : Блакитноокий Міккі / Mickey Blue Eyes (1999)
Writing library                          : core 157 r2958 57baac4
Encoding settings                        : cabac=1 / ref=12 / deblock=1:-2:-2 / analyse=0x3:0x133 / me=umh / subme=11 / psy=1 / psy_rd=1.00:0.15 / mixed_ref=1 / me_range=32 / chroma_me=1 / trellis=2 / 8x8dct=1 / cqm=0 / deadzone=21,11 / fast_pskip=0 / chroma_qp_offset=-3 / threads=6 / lookahead_threads=1 / sliced_threads=0 / nr=0 / decimate=0 / interlaced=0 / bluray_compat=0 / constrained_intra=0 / bframes=12 / b_pyramid=2 / b_adapt=2 / b_bias=0 / direct=3 / weightb=1 / open_gop=0 / weightp=2 / keyint=240 / keyint_min=24 / scenecut=40 / intra_refresh=0 / rc_lookahead=60 / rc=2pass / mbtree=0 / bitrate=2675 / ratetol=1.0 / qcomp=0.70 / qpmin=0 / qpmax=69 / qpstep=4 / cplxblur=20.0 / qblur=0.5 / vbv_maxrate=50000 / vbv_bufsize=62500 / nal_hrd=none / filler=0 / ip_ratio=1.40 / pb_ratio=1.30 / aq=3:0.80
Language                                 : English
Default                                  : Yes
Forced                                   : No
Color range                              : Limited
Color primaries                          : BT.709
Transfer characteristics                 : BT.709
Matrix coefficients                      : BT.709

Audio #1
ID                                       : 2
Format                                   : AC-3
Format/Info                              : Audio Coding 3
Commercial name                          : Dolby Digital
Codec ID                                 : A_AC3
Duration                                 : 1 h 42 min
Bit rate mode                            : Constant
Bit rate                                 : 384 kb/s
Channel(s)                               : 6 channels
Channel layout                           : L R C LFE Ls Rs
Sampling rate                            : 48.0 kHz
Frame rate                               : 31.250 FPS (1536 SPF)
Bit depth                                : 16 bits
Compression mode                         : Lossy
Stream size                              : 283 MiB (11%)
Title                                    : / 5.1 Ch / 384 kbps / ДЗ / Novy Kanal
Language                                 : Ukrainian
Service kind                             : Complete Main
Default                                  : Yes
Forced                                   : Yes

Audio #2
ID                                       : 3
Format                                   : AC-3
Format/Info                              : Audio Coding 3
Commercial name                          : Dolby Digital
Codec ID                                 : A_AC3
Duration                                 : 1 h 42 min
Bit rate mode                            : Constant
Bit rate                                 : 384 kb/s
Channel(s)                               : 6 channels
Channel layout                           : L R C LFE Ls Rs
Sampling rate                            : 48.0 kHz
Frame rate                               : 31.250 FPS (1536 SPF)
Bit depth                                : 16 bits
Compression mode                         : Lossy
Stream size                              : 280 MiB (11%)
Title                                    : / 5.1 Ch / 384 kbps / Original
Language                                 : English
Service kind                             : Complete Main
Default                                  : No
Forced                                   : No

Text #1
ID                                       : 4
Format                                   : UTF-8
Codec ID                                 : S_TEXT/UTF8
Codec ID/Info                            : UTF-8 Plain Text
Duration                                 : 1 h 38 min
Bit rate                                 : 76 b/s
Count of elements                        : 2097
Stream size                              : 55.7 KiB (0%)
Title                                    : Full
Language                                 : English
Default                                  : No
Forced                                   : No

Text #2
ID                                       : 5
Format                                   : UTF-8
Codec ID                                 : S_TEXT/UTF8
Codec ID/Info                            : UTF-8 Plain Text
Duration                                 : 1 h 38 min
Bit rate                                 : 80 b/s
Count of elements                        : 2218
Stream size                              : 58.3 KiB (0%)
Title                                    : SDH
Language                                 : English
Default                                  : No
Forced                                   : No

Menu
00:00:00.000                             : :Scene 1 – Producer credits
00:00:22.984                             : :Scene 2 – Opening Credits
00:01:55.984                             : :Scene 3 – Another day at work for Michael, Cromwell's
00:04:25.983                             : :Scene 4 – Michael takes Gina on a date, New York
00:07:31.984                             : :Scene 5 – Michael belatedly proposes, chinese restaurant
00:11:39.984                             : :Scene 6 – Michael meets Ritchie and his associates, The La Trattoria
00:15:15.984                             : :Scene 7 – Frank gets to know Michael, The La Trattoria
00:17:54.984                             : :Scene 8 – Michael asks for Gina's hand in marriage, Frank's office
00:19:59.984                             : :Scene 9 – Gina tells Michael about her family, suburban street
00:24:11.984                             : :Scene 10 – Michael has an awkward conversation with uncle Vito
00:26:58.984                             : :Scene 11 – Michael appraises Johnny's art, engagement party
00:29:27.984                             : :Scene 12 – Michael talks with an elderly patron of the arts, Cromwell's
00:31:22.984                             : :Scene 13 – Michael's new family begins to ask favors of him, Cromwell's
00:34:04.984                             : :Scene 14 – Michael desperately distracts Gina, Michael's office
00:35:31.984                             : :Scene 15 – Johnny's painting is miraculously sold, Cromwell's
00:38:18.984                             : :Scene 16 – Michael wants to be sure there will be no more favors, taxicab
00:39:16.984                             : :Scene 17 – Michael is visited by the FBI, Michael's office
00:42:10.984                             : :Scene 18 – Frank promises Michael this'll be the last time again
00:44:43.984                             : :Scene 19 – The elderly art patron accidentally buys a Graziosi, Cromwell's
00:47:24.984                             : :Scene 20 – Gina pleasantly surprises Michael, Michael's apartment
00:49:19.984                             : :Scene 21 – Gina accidentally shoots Johnny, Michael's apartment
00:52:28.984                             : :Scene 22 – Michael and Frank dispose of Johnny's body, New York
00:54:43.984                             : :Scene 23 – Frank introduces Mickey Blue Eyes, riverside
00:57:20.984                             : :Scene 24 – Michael learns that Frank has framed another crime family
00:58:56.984                             : :Scene 25 – Tony Risolli points Vito in the dangerously right direction
01:01:03.984                             : :Scene 26 – Frank and Michael wrestle over Mrs. Horton's fate
01:03:00.984                             : :Scene 27 – Frank teaches Michael to talk like a wise guy, New York
01:04:20.984                             : :Scene 28 – Everyone Michael knows is at the same restaurant, steakhouse
01:07:55.984                             : :Scene 29 – Michael freaks out, New York
01:09:07.984                             : :Scene 30 – Gina breaks up with Michael, Gina's apartment building
01:11:15.984                             : :Scene 31 – Frank tries to protect his daughter, New York
01:12:43.984                             : :Scene 32 – Frank explains that he must whack Michael, dock
01:15:07.984                             : :Scene 33 – Michael prepares to be shot, warehouse
01:16:24.984                             : :Scene 34 – Michael and the FBI agents explain the plan to Gina
01:18:45.984                             : :Scene 35 – Michael and the FBI agents prepare for the wedding, Louie's
01:20:59.984                             : :Scene 36 – Michael makes a business offer to Vito, wedding
01:24:13.984                             : :Scene 37 – Michael slaps his pocket too soon, wedding
01:26:34.984                             : :Scene 38 – Michael and Gina are called to make their speeches, wedding
01:28:59.984                             : :Scene 39 – Michael makes a weird speech, wedding
01:31:50.984                             : :Scene 40 – The sting goes horribly awry, wedding
01:33:47.984                             : :Scene 41 – Michael tells Gina about Little Mickey Blue Eyes, marathon
01:37:21.984                             : :Scene 42 – End Credits
Світлини




Джерело:
Над українською доріжкою працювали: urij546724, Neo777.
Особиста оцінка: 0 - не дивився


Срібний реліз (на рейтинг впливає 50% завантаженого)
 Трекер:    Зареєстрований   

Завантажити / скачати фільм українською



відео для новачків



 Зареєстрований:   2019-09-22 14:39
 Розмір:   2.48 GB 
 Оцінка фільму:   10/10 (Голосів: 9)
   
Інші релізи
Місухіцу 
Новенький


З нами з: 26.03.10
Востаннє: 02.10.19
Повідомлень: 8

2019-09-23 22:22  
Фільм насправді надзвичайний!
palmotron 
Новенький


З нами з: 27.11.08
Востаннє: 12.10.19
Повідомлень: 12

2019-10-05 22:52  
Ось воно справжнє кіно! Де є дуже влучний гумор, кримінал, романтика і все так з душею...
Дуже-дуже сподобалось, однозначно рекомендую. Кіно, яким воно має бути!

dimon-2018 
VIP


З нами з: 06.05.18
Востаннє: 20.10.19
Повідомлень: 404

2019-10-18 17:34  
Anonymous
український постер

Ваш часовий пояс: GMT + 2 Години

Нова тема   Відповісти