Дев'ять ярдів / The Whole Nine Yards (2000) 720p 3xUkr/Eng | Sub Eng

Нові коментарі

Нова тема   Відповісти
Автор Повідомлення
Anonymous 







2019-09-22 13:41  
Дев'ять ярдів / The Whole Nine Yards (2000) 720p 3xUkr/Eng | Sub Eng

Дев'ять ярдів / The Whole Nine Yards (2000) 720p 3xUkr/Eng | Sub Eng


Жанр: комедія, кримінальний
Країна: США
Кінокомпанія: Franchise Pictures, Lansdown Films, Morgan Creek Productions
Режисер: Джонатан Лінн / Jonathan Lynn
Актори: Брюс Вілліс / Bruce Willis, Метью Перрі / Matthew Perry, Розанна Аркет / Rosanna Arquette, Майкл Кларк Дункан / Michael Clarke Duncan, Наташа Генстрідж / Natasha Henstridge, Аманда Піт / Amanda Peet, Кевін Поллак / Kevin Pollak та інші.

Сюжет:
Ніколас Озеранскі, Оз для друзів, вів спокійне, тихе життя. Він був непоганим дантистом, жив в престижному передмісті Монреаля і мучився з стервою дружиною, від якої не міг ніяк позбутися. Знайомство з новим сусідом поклало край цьому життю раз і на завжди...

Тривалість: 01:38:51
Якість:

Відео:
кодек:
розмір кадру: 1280 x 720
бітрейт: 5 755 кб/с

Аудіо # 1:
мова: українська
переклад: професійний дубльований
кодек: AC-3 2.0
бітрейт: 192 кб/с

Аудіо # 2:
мова: українська
переклад: багатоголосий закадровий ,
кодек: AC-3 2.0
бітрейт: 192 кб/с

Аудіо # 3:
мова: українська
переклад: двоголосий закадровий
кодек: AC-3 2.0
бітрейт: 192 кб/с

Аудіо # 4:
мова: англійська
переклад: оригінал
кодек: E-AC-3 5.1
бітрейт: 640 кб/с

Субтитри # 1: (Forced)
мова: українська
тип: програмні (м'які)
формат: *.srt

Субтитри # 2-3: (Full, SDH)
мова: англійська
тип: програмні (м'які)
формат: *.srt


Info
Код:
General
Unique ID                                : 274632189607924726736922030985220867383 (0xCE9C3C5B26A66AB1D33429CECF3E4537)
Complete name                            : The Whole Nine Yards (2000) 720p [3xUKR_ENG] [Hurtom].
Format                                   :
Format version                           : Version 4
File size                                : 4.82 GiB
Duration                                 : 1 h 38 min
Overall bit rate                         : 6 968 kb/s
Movie name                               : Дев'ять ярдів / The Whole Nine Yards (2000)
Encoded date                             : UTC 2019-09-22 10:28:56
Writing application                      : v20.0.0 ('I Am The Sun') 64-bit
Writing library                          : libebml v1.3.5 + v1.4.8
Cover                                    : Yes
Attachments                              : cover.jpg

Video
ID                                       : 1
Format                                   : AVC
Format/Info                              : Advanced Video Codec
Format profile                           : [email protected]
Format settings                          : CABAC / 9 Ref Frames
Format settings, CABAC                   : Yes
Format settings, Reference frames        : 9 frames
Codec ID                                 : V_MPEG4/ISO/AVC
Duration                                 : 1 h 38 min
Bit rate                                 : 5 755 kb/s
Width                                    : 1 280 pixels
Height                                   : 720 pixels
Display aspect ratio                     : 16:9
Frame rate mode                          : Constant
Frame rate                               : 23.976 (24000/1001) FPS
Color space                              : YUV
Chroma subsampling                       : 4:2:0
Bit depth                                : 8 bits
Scan type                                : Progressive
Bits/(Pixel*Frame)                       : 0.260
Stream size                              : 3.97 GiB (83%)
Title                                    : Дев'ять ярдів / The Whole Nine Yards (2000)
Writing library                          : core 148 r2638 7599210
Encoding settings                        : cabac=1 / ref=9 / deblock=1:-3:-3 / analyse=0x3:0x113 / me=umh / subme=11 / psy=1 / psy_rd=1.00:0.00 / mixed_ref=1 / me_range=48 / chroma_me=1 / trellis=2 / 8x8dct=1 / cqm=0 / deadzone=21,11 / fast_pskip=0 / chroma_qp_offset=-2 / threads=6 / lookahead_threads=1 / sliced_threads=0 / nr=0 / decimate=0 / interlaced=0 / bluray_compat=0 / constrained_intra=0 / bframes=16 / b_pyramid=2 / b_adapt=2 / b_bias=0 / direct=3 / weightb=1 / open_gop=0 / weightp=2 / keyint=240 / keyint_min=23 / scenecut=40 / intra_refresh=0 / rc_lookahead=40 / rc=2pass / mbtree=0 / bitrate=5755 / ratetol=1.0 / qcomp=0.60 / qpmin=0 / qpmax=69 / qpstep=4 / cplxblur=20.0 / qblur=0.5 / vbv_maxrate=50000 / vbv_bufsize=62500 / nal_hrd=none / filler=0 / ip_ratio=1.40 / pb_ratio=1.30 / aq=3:0.90
Language                                 : English
Default                                  : Yes
Forced                                   : No
Color range                              : Limited
Color primaries                          : BT.709
Transfer characteristics                 : BT.709
Matrix coefficients                      : BT.709

Audio #1
ID                                       : 2
Format                                   : AC-3
Format/Info                              : Audio Coding 3
Commercial name                          : Dolby Digital
Codec ID                                 : A_AC3
Duration                                 : 1 h 38 min
Bit rate mode                            : Constant
Bit rate                                 : 192 kb/s
Channel(s)                               : 2 channels
Channel layout                           : L R
Sampling rate                            : 48.0 kHz
Frame rate                               : 31.250 FPS (1536 SPF)
Bit depth                                : 16 bits
Compression mode                         : Lossy
Stream size                              : 136 MiB (3%)
Title                                    : / 2.0 Ch / 192 kbps / ПД / NLO
Language                                 : Ukrainian
Service kind                             : Complete Main
Default                                  : Yes
Forced                                   : Yes

Audio #2
ID                                       : 3
Format                                   : AC-3
Format/Info                              : Audio Coding 3
Commercial name                          : Dolby Digital
Codec ID                                 : A_AC3
Duration                                 : 1 h 38 min
Bit rate mode                            : Constant
Bit rate                                 : 192 kb/s
Channel(s)                               : 2 channels
Channel layout                           : L R
Sampling rate                            : 48.0 kHz
Frame rate                               : 31.250 FPS (1536 SPF)
Bit depth                                : 16 bits
Compression mode                         : Lossy
Stream size                              : 136 MiB (3%)
Title                                    : / 2.0 Ch / 192 kbps / БЗ / Novy Kanal, ICTV
Language                                 : Ukrainian
Service kind                             : Complete Main
Default                                  : No
Forced                                   : No

Audio #3
ID                                       : 4
Format                                   : AC-3
Format/Info                              : Audio Coding 3
Commercial name                          : Dolby Digital
Codec ID                                 : A_AC3
Duration                                 : 1 h 38 min
Bit rate mode                            : Constant
Bit rate                                 : 192 kb/s
Channel(s)                               : 2 channels
Channel layout                           : L R
Sampling rate                            : 48.0 kHz
Frame rate                               : 31.250 FPS (1536 SPF)
Bit depth                                : 16 bits
Compression mode                         : Lossy
Stream size                              : 136 MiB (3%)
Title                                    : / 2.0 Ch / 192 kbps / ДЗ / 1+1
Language                                 : Ukrainian
Service kind                             : Complete Main
Default                                  : No
Forced                                   : No

Audio #4
ID                                       : 5
Format                                   : E-AC-3
Format/Info                              : Enhanced AC-3
Commercial name                          : Dolby Digital Plus
Codec ID                                 : A_EAC3
Duration                                 : 1 h 38 min
Bit rate mode                            : Constant
Bit rate                                 : 640 kb/s
Channel(s)                               : 6 channels
Channel layout                           : L R C LFE Ls Rs
Sampling rate                            : 48.0 kHz
Frame rate                               : 31.250 FPS (1536 SPF)
Compression mode                         : Lossy
Stream size                              : 453 MiB (9%)
Title                                    : E- / 5.1 Ch / 640 kbps / Original
Language                                 : English
Service kind                             : Complete Main
Default                                  : No
Forced                                   : No

Text #1
ID                                       : 6
Format                                   : UTF-8
Codec ID                                 : S_TEXT/UTF8
Codec ID/Info                            : UTF-8 Plain Text
Duration                                 : 11 min 23 s
Bit rate                                 : 39 b/s
Count of elements                        : 51
Stream size                              : 3.28 KiB (0%)
Title                                    : Forced
Language                                 : Ukrainian
Default                                  : Yes
Forced                                   : No

Text #2
ID                                       : 7
Format                                   : UTF-8
Codec ID                                 : S_TEXT/UTF8
Codec ID/Info                            : UTF-8 Plain Text
Duration                                 : 1 h 38 min
Bit rate                                 : 64 b/s
Count of elements                        : 1783
Stream size                              : 46.8 KiB (0%)
Title                                    : Full
Language                                 : English
Default                                  : No
Forced                                   : No

Text #3
ID                                       : 8
Format                                   : UTF-8
Codec ID                                 : S_TEXT/UTF8
Codec ID/Info                            : UTF-8 Plain Text
Duration                                 : 1 h 38 min
Bit rate                                 : 67 b/s
Count of elements                        : 1922
Stream size                              : 48.9 KiB (0%)
Title                                    : SDH
Language                                 : English
Default                                  : No
Forced                                   : No

Menu
00:00:00.000                             : en:01. Do Me A Favor And Die
00:02:53.399                             : en:02. I Don't Worry About A Thing
00:05:10.369                             : en:03. Leave The Bitch
00:07:21.667                             : en:04. Familiar Face
00:11:31.617                             : en:05. Getting To Know
00:15:14.339                             : en:06. Sophie's Choice
00:19:31.063                             : en:07. Dances With Figs
00:23:00.105                             : en:08. Janni Gogolak
00:28:14.419                             : en:09. Jimmy Knows
00:30:28.052                             : en:10. Cynthia Walks In
00:36:39.090                             : en:11. Oz Swears
00:39:22.753                             : en:12. Friends Don't...
00:45:44.167                             : en:13. Shaky
00:47:13.256                             : en:14. Jill Meets Her Idol
00:53:42.979                             : en:15. Death Wishes
00:57:57.900                             : en:16. Sweet Dreams...
01:02:27.670                             : en:17. Everybody Has A Plan
01:05:52.842                             : en:18. Hit Parade
01:09:25.721                             : en:19. All For Love
01:14:09.371                             : en:20. Dentistry Barbecue
01:18:56.124                             : en:21. All Jill's Fault
01:23:49.417                             : en:22. Boating/Banking
01:28:02.503                             : en:23. Dead Man Overboard.
01:31:46.227                             : en:24. Hi To My Widow.
01:35:14.468                             : en:25. End Credits.
Світлини




Джерело: &
Особиста оцінка: 0 - не дивився


Срібний реліз (на рейтинг впливає 50% завантаженого)
 Трекер:    Зареєстрований   

Завантажити / скачати фільм українською



відео для новачків



 Зареєстрований:   2019-09-22 13:41
 Розмір:   4.82 GB 
 Оцінка фільму:   9.8/10 (Голосів: 5)
   
Інші релізи
casper101 
VIP


З нами з: 03.12.09
Востаннє: 27.09.20
Повідомлень: 449

2019-09-22 20:06  
Мені сподобалось!
Anonymous 







2019-09-22 20:18  
casper101
Так, фільм чудовий!

Ваш часовий пояс: GMT + 2 Години

Нова тема   Відповісти