Ґодзілла / Godzilla (2014) Remux 1080p Ukr/Eng | Sub Ukr/Eng

Нові коментарі

Нова тема   Відповісти
Автор Повідомлення
Argentum 
Поважний учасник


З нами з: 25.09.11
Востаннє: 17.11.19
Повідомлень: 218

2019-09-22 11:28  
Ґодзілла / Godzilla (2014) Remux 1080p Ukr/Eng | Sub Ukr/Eng

Ґодзілла / Godzilla (2014) Remux 1080p Ukr/Eng | Sub Ukr/Eng


Жанр: пригодницький, бойовик, фантастика
Країна: США



Кінокомпанія: Warner Brothers, Legendary Pictures, Disruption Entertainment, Toho Company
Режисер: Ґарет Едвардс
Актори: Аарон Тейлор-Джонсон, Елізабет Олсен, Браян Кренстон, Ватанабе Кен, Жульєт Бінош та інші.

Сюжет:
Людство випадково пробудило гігантську стародавню істоту, що спричинило за собою жахливі наслідки...


Тривалість: 02:03:97
Якість: Remux
Відео:
кодек:
розмір кадру: 1920 х 1080
бітрейт: 23.7 Мб/с

Аудіо # 1:
мова: українська
переклад: професійний дубльований
кодек: 5.1
бітрейт: 448 кб/с

Аудіо # 2:
мова: англійська
переклад: оригінал
кодек: 5.1
бітрейт: 1509 кб/с

Субтитри 1-2: (форсовані, повні)
мова: українська
тип: програмні (м'які)
формат: *.srt

Субтитри 3-4: (Full, SDH)
мова: англійська
тип: програмні (м'які)
формат: *.srt
Info
General
Unique ID : 7578471969961998914794943520218422095 (0x5B38F8422791DDA43D7424C4AE61B4F)
Complete name : Godzilla.(2014).[UKR_ENG].Remux.1080p.[Hurtom].
Format :
Format version : Version 4
File size : 22.1 GiB
Duration : 2 h 3 min
Overall bit rate mode : Variable
Overall bit rate : 25.7 Mb/s
Movie name : Godzilla.(2014).[UKR_ENG].Remux.1080p.[Hurtom]
Encoded date : UTC 2019-09-23 08:37:44
Writing application : v37.0.0 ('Leave It') 64-bit
Writing library : libebml v1.3.9 + v1.5.2
Attachments : Godzilla.jpg

Video
ID : 1
Format : AVC
Format/Info : Advanced Video Codec
Format profile : [email protected]
Format settings : CABAC / 2 Ref Frames
Format settings, CABAC : Yes
Format settings, Reference frames : 2 frames
Format settings, GOP : M=1, N=10
Codec ID : V_MPEG4/ISO/AVC
Duration : 2 h 3 min
Bit rate mode : Variable
Bit rate : 23.7 Mb/s
Width : 1 920 pixels
Height : 1 080 pixels
Display aspect ratio : 16:9
Frame rate mode : Constant
Frame rate : 23.976 (24000/1001) FPS
Color space : YUV
Chroma subsampling : 4:2:0
Bit depth : 8 bits
Scan type : Progressive
Bits/(Pixel*Frame) : 0.477
Stream size : 20.4 GiB (92%)
Title : AVC 1920*1080 @ 23.7 Mb/s
Language : Multiple languages
Default : Yes
Forced : Yes

Audio #1
ID : 2
Format : AC-3
Format/Info : Audio Coding 3
Commercial name : Dolby Digital
Codec ID : A_AC3
Duration : 2 h 3 min
Bit rate mode : Constant
Bit rate : 448 kb/s
Channel(s) : 6 channels
Channel layout : L R C LFE Ls Rs
Sampling rate : 48.0 kHz
Frame rate : 31.250 FPS (1536 SPF)
Bit depth : 16 bits
Compression mode : Lossy
Stream size : 395 MiB (2%)
Title : AC-3 5.1 @ 448 kb/s
Language : Ukrainian
Service kind : Complete Main
Default : Yes
Forced : Yes

Audio #2
ID : 3
Format :
Format/Info : Digital Theater Systems
Codec ID : A_DTS
Duration : 2 h 3 min
Bit rate mode : Constant
Bit rate : 1 509 kb/s
Channel(s) : 6 channels
Channel layout : C L R Ls Rs LFE
Sampling rate : 48.0 kHz
Frame rate : 93.750 FPS (512 SPF)
Bit depth : 24 bits
Compression mode : Lossy
Stream size : 1.30 GiB (6%)
Title : 5.1 @ 1 509 kb/s
Language : English
Default : No
Forced : No

Text #1
ID : 4
Format : UTF-8
Codec ID : S_TEXT/UTF8
Codec ID/Info : UTF-8 Plain Text
Duration : 2 h 2 min
Bit rate : 2 b/s
Count of elements : 53
Stream size : 2.65 KiB (0%)
Title : Forced
Language : Ukrainian
Default : Yes
Forced : Yes

Text #2
ID : 5
Format : UTF-8
Codec ID : S_TEXT/UTF8
Codec ID/Info : UTF-8 Plain Text
Duration : 1 h 54 min
Bit rate : 72 b/s
Count of elements : 1178
Stream size : 61.1 KiB (0%)
Title : Full
Language : Ukrainian
Default : No
Forced : No

Text #3
ID : 6
Format : UTF-8
Codec ID : S_TEXT/UTF8
Codec ID/Info : UTF-8 Plain Text
Duration : 1 h 53 min
Bit rate : 41 b/s
Count of elements : 1155
Stream size : 34.6 KiB (0%)
Title : Full
Language : English
Default : No
Forced : No

Text #4
ID : 7
Format : UTF-8
Codec ID : S_TEXT/UTF8
Codec ID/Info : UTF-8 Plain Text
Duration : 2 h 1 min
Bit rate : 46 b/s
Count of elements : 1449
Stream size : 41.0 KiB (0%)
Title : SDH
Language : English
Default : No
Forced : No

Menu
00:00:00.000 : en:00:00:00.000
00:09:22.562 : en:00:09:22.562
00:19:03.225 : en:00:19:03.225
00:30:25.532 : en:00:30:25.532
00:39:10.098 : en:00:39:10.098
00:49:43.439 : en:00:49:43.439
00:59:27.189 : en:00:59:27.189
01:09:50.186 : en:01:09:50.186
01:19:11.246 : en:01:19:11.246
01:29:57.267 : en:01:29:57.267
01:40:14.759 : en:01:40:14.759
01:52:14.728 : en:01:52:14.728
01:56:10.088 : en:01:56:10.088
Скріншоти









Джерело: &
Особиста оцінка: 8 - мені сподобалося


Золотий реліз (завантажене не впливає на рейтинг)
 Трекер:    Зареєстрований   

Завантажити / скачати фільм українською



відео для новачків



 Зареєстрований:   2019-09-23 11:27
 Розмір:   22.06 GB 
 Оцінка фільму:   9/10 (Голосів: 5)
   
Інші релізи
   Ґодзілла / Godzilla (2014) 1080p H.265 Ukr/Eng | Sub Ukr/Eng -Star-Lord-  6 / 0   4.79 GB   2019-02-27 15:15 
   Ґодзілла / Godzilla (2014) 1080p 3D [Half OverUnder] Ukr/Eng | Sub Ukr/Eng 3d_reliz  3 / 0   10.73 GB   2014-09-29 11:50 
   Ґодзілла / Godzilla (2014) Blu-ray CEE Multi | Sub Multi smak2001  1 / 0   38.16 GB   2014-09-12 09:55 
   Ґодзілла / Godzilla (2014) 1080p Ukr/Eng | Sub Ukr/Eng 11FrYkT  8 / 0   9.84 GB   2014-09-11 17:10 
   Ґодзілла / Godzilla (2014) AVC Ukr | Sub Ukr/Eng patriot2305  9 / 0   1.94 GB   2014-09-11 12:05 
   Ґодзілла / Godzilla (2014) patriot2305  5 / 0   1.46 GB   2014-09-11 08:24 
   Ґодзілла / Godzilla (2014) 720p Ukr/Eng | Sub Ukr/Eng 11FrYkT  5 / 0   4.98 GB   2014-09-11 06:22 
   Ґодзілла / Godzilla (2014) Ukr/Eng | Sub Ukr/Eng Gelios  5 / 0   2.17 GB   2014-09-11 06:13 
bot 
робот


З нами з: 30.09.07
Востаннє: 26.05.05
Повідомлень: 22477

2019-09-22 11:28  
Тему перенесено з Фільми в HD до форуму Анонси релізів


Argentum

bot 
робот


З нами з: 30.09.07
Востаннє: 26.05.05
Повідомлень: 22477

2019-09-23 11:27  
Тему перенесено з Анонси релізів до форуму Фільми в HD


Argentum

Ваш часовий пояс: GMT + 2 Години

Нова тема   Відповісти