Примарний вершник [Розширена версія] / Ghost Rider [Extended cut] (2007) 1080p H.265 Ukr/Eng | Sub Ukr/Eng

Нові коментарі

Нова тема   Відповісти
Автор Повідомлення
Anonymous 







2019-09-22 12:01  
Примарний вершник [Розширена версія] / Ghost Rider [Extended cut] (2007) 1080p H.265 Ukr/Eng | Sub Ukr/Eng

Примарний вершник [Розширена версія] / Ghost Rider [Extended cut] (2007) 1080p H.265 Ukr/Eng | Sub Ukr/Eng


Жанр: фентезі, бойовик, пригодницький
Країна: США
Кінокомпанія: Columbia Pictures Corporation
Режисер: Марк Стівен Джонсон
Актори: Ніколас Кейдж, Єва Мендес, Пітер Фонда, Вес Бентлі, Сем Елліотт

Сюжет:
Для того, щоб врятувати свого батька, який вмирає на його очах від раку, байкер-екстремал Джонні Блейз заключає договір з дияволом, земне ім'я якого Мефістофель. Об'єктом договору є його безсмертна душа.

Проходять роки, і диявол пред'являє свої права за контрактом. Він перетворює Джонні на Примарного вершника, агента потойбічних сил, що володіє надлюдськими здібностями.

З настанням ночі він проноситься по місту на своєму «пекельному» Харлеї і збирає людську «данину» для свого нового господаря. І хоча контракт - безстроковий, і кататися б йому до кінця своїх днів, залишаючи вогненний слід на темних вулицях, але світла сторона головного героя все-таки бере перемогу над силами темряви…

Тривалість: 02:03:25 [Розширена версія]
Якість:

Відео:
кодек: H.265 (HEVC)
розмір кадру: 1920 x 800
бітрейт: 5812 кб/с
бітова глибина: 10 біт

Увага! Перед завантаженням переконайтесь, що ваш пристрій відтворення (та/або ПЗ) підтримує H.265 (HEVC)

Аудіо # 1:
мова: українська
переклад: професійний дубльований + вставки оригіналу на розширені місця ~5-7 хв
кодек: AC-3 5.1
бітрейт: 448 кб/с
примітка: на неозвучені епізоди розширеної версії (~5-7 хв.) є примусові субтитри

Аудіо # 2:
мова: англійська
переклад: оригінал
кодек: AC-3 5.1
бітрейт: 640 кб/с

Субтитри # 1-2: (Forced, Full)
мова: українська
тип: програмні (м'які)
формат: *.srt

Субтитри # 3: (Full)
мова: англійська
тип: програмні (м'які)
формат: *.srt


Info
Код:
General
Unique ID                                : 126853284559053114692504090928704992968 (0x5F6F0DCE33411522BD892806EE8536C8)
Complete name                            : Ghost Rider (2007) [Extended Cut] 1080p H.265 [UKR_ENG] [Hurtom].
Format                                   :
Format version                           : Version 4
File size                                : 5.95 GiB
Duration                                 : 2 h 3 min
Overall bit rate                         : 6 902 kb/s
Movie name                               : Примарний вершник (Розширена версія) / Ghost Rider (Extended Cut) (2007)
Encoded date                             : UTC 2019-09-22 08:06:13
Writing application                      : v20.0.0 ('I Am The Sun') 64-bit
Writing library                          : libebml v1.3.5 + v1.4.8
Cover                                    : Yes
Attachments                              : Cover.jpg

Video
ID                                       : 1
Format                                   : HEVC
Format/Info                              : High Efficiency Video Coding
Format profile                           : Main [email protected]@High
Codec ID                                 : V_MPEGH/ISO/HEVC
Duration                                 : 2 h 3 min
Bit rate                                 : 5 812 kb/s
Width                                    : 1 920 pixels
Height                                   : 800 pixels
Display aspect ratio                     : 2.40:1
Frame rate mode                          : Constant
Frame rate                               : 23.976 (24000/1001) FPS
Color space                              : YUV
Chroma subsampling                       : 4:2:0
Bit depth                                : 10 bits
Bits/(Pixel*Frame)                       : 0.158
Stream size                              : 5.01 GiB (84%)
Title                                    : Примарний вершник (Розширена версія) / Ghost Rider (Extended Cut) (2007)
Writing library                          : x265 2.5+20-0967d0add97e:[Windows][GCC 7.2.0][64 bit] 10bit
Encoding settings                        : cpuid=1173503 / frame-threads=4 / numa-pools=16 / wpp / no-pmode / no-pme / no-psnr / no-ssim / log-level=2 / input-csp=1 / input-res=1920x800 / interlace=0 / total-frames=0 / level-idc=41 / high-tier=1 / uhd-bd=0 / ref=5 / no-allow-non-conformance / no-repeat-headers / annexb / no-aud / no-hrd / info / hash=0 / no-temporal-layers / open-gop / min-keyint=23 / keyint=240 / bframes=8 / b-adapt=2 / no-b-pyramid / bframe-bias=0 / rc-lookahead=60 / lookahead-slices=4 / scenecut=40 / no-intra-refresh / ctu=64 / min-cu-size=8 / rect / amp / max-tu-size=32 / tu-inter-depth=4 / tu-intra-depth=4 / limit-tu=1 / rdoq-level=2 / dynamic-rd=0.00 / no-ssim-rd / signhide / no-tskip / nr-intra=0 / nr-inter=0 / no-constrained-intra / no-strong-intra-smoothing / max-merge=3 / limit-refs=3 / limit-modes / me=3 / subme=7 / merange=57 / temporal-mvp / weightp / weightb / no-analyze-src-pics / deblock=-3:-3 / no-sao / no-sao-non-deblock / rd=6 / no-early-skip / rskip / no-fast-intra / no-tskip-fast / no-cu-lossless / b-intra / no-splitrd-skip / rdpenalty=0 / psy-rd=2.00 / psy-rdoq=1.00 / no-rd-refine / analysis-reuse-mode=0 / no-lossless / cbqpoffs=0 / crqpoffs=0 / rc=crf / crf=18.0 / qcomp=0.60 / qpstep=4 / stats-write=0 / stats-read=0 / vbv-maxrate=50000 / vbv-bufsize=50000 / vbv-init=0.9 / crf-max=0.0 / crf-min=0.0 / ipratio=1.40 / pbratio=1.30 / aq-mode=1 / aq-strength=1.00 / cutree / zone-count=1 / zones: / start-frame=166819 / end-frame=177552 / qp=35 / no-strict-cbr / qg-size=32 / no-rc-grain / qpmax=69 / qpmin=0 / no-const-vbv / sar=1 / overscan=0 / videoformat=5 / range=0 / colorprim=2 / transfer=2 / colormatrix=1 / chromaloc=0 / display-window=0 / max-cll=0,0 / min-luma=0 / max-luma=1023 / log2-max-poc-lsb=8 / vui-timing-info / vui-hrd-info / slices=1 / opt-qp-pps / opt-ref-list-length-pps / no-multi-pass-opt-rps / scenecut-bias=0.05 / no-opt-cu-delta-qp / no-aq-motion / no-hdr / no-hdr-opt / no-dhdr10-opt / analysis-reuse-level=5 / scale-factor=0 / refine-intra=0 / refine-inter=0 / refine-mv=0 / no-limit-sao / ctu-info=0
Language                                 : English
Default                                  : Yes
Forced                                   : Yes
Color range                              : Limited
Matrix coefficients                      : BT.709

Audio #1
ID                                       : 2
Format                                   : AC-3
Format/Info                              : Audio Coding 3
Commercial name                          : Dolby Digital
Codec ID                                 : A_AC3
Duration                                 : 2 h 3 min
Bit rate mode                            : Constant
Bit rate                                 : 448 kb/s
Channel(s)                               : 6 channels
Channel layout                           : L R C LFE Ls Rs
Sampling rate                            : 48.0 kHz
Frame rate                               : 31.250 FPS (1536 SPF)
Bit depth                                : 16 bits
Compression mode                         : Lossy
Stream size                              : 395 MiB (6%)
Title                                    : / 5.1 Ch / 448 kbps / ПД / DVD
Language                                 : Ukrainian
Service kind                             : Complete Main
Default                                  : Yes
Forced                                   : Yes

Audio #2
ID                                       : 3
Format                                   : AC-3
Format/Info                              : Audio Coding 3
Commercial name                          : Dolby Digital
Codec ID                                 : A_AC3
Duration                                 : 2 h 3 min
Bit rate mode                            : Constant
Bit rate                                 : 640 kb/s
Channel(s)                               : 6 channels
Channel layout                           : L R C LFE Ls Rs
Sampling rate                            : 48.0 kHz
Frame rate                               : 31.250 FPS (1536 SPF)
Bit depth                                : 16 bits
Compression mode                         : Lossy
Stream size                              : 565 MiB (9%)
Title                                    : / 5.1 Ch / 640 kbps / Original
Language                                 : English
Service kind                             : Complete Main
Default                                  : No
Forced                                   : No

Text #1
ID                                       : 4
Format                                   : UTF-8
Codec ID                                 : S_TEXT/UTF8
Codec ID/Info                            : UTF-8 Plain Text
Duration                                 : 1 h 37 min
Bit rate                                 : 11 b/s
Count of elements                        : 162
Stream size                              : 8.17 KiB (0%)
Title                                    : Forced
Language                                 : Ukrainian
Default                                  : Yes
Forced                                   : Yes

Text #2
ID                                       : 5
Format                                   : UTF-8
Codec ID                                 : S_TEXT/UTF8
Codec ID/Info                            : UTF-8 Plain Text
Duration                                 : 1 h 56 min
Bit rate                                 : 63 b/s
Count of elements                        : 1087
Stream size                              : 53.6 KiB (0%)
Title                                    : Full
Language                                 : Ukrainian
Default                                  : No
Forced                                   : No

Text #3
ID                                       : 6
Format                                   : UTF-8
Codec ID                                 : S_TEXT/UTF8
Codec ID/Info                            : UTF-8 Plain Text
Duration                                 : 1 h 54 min
Bit rate                                 : 39 b/s
Count of elements                        : 1070
Stream size                              : 33.3 KiB (0%)
Title                                    : Full
Language                                 : English
Default                                  : No
Forced                                   : No

Menu
00:00:00.000                             : en:Ghost Legend
00:09:21.394                             : en:Changing Paths
00:18:28.690                             : en:Mr. Invincible
00:21:21.571                             : en:Second Chances
00:28:40.135                             : en:An Old Friend
00:35:54.110                             : en:Only Johnny Blaze
00:42:02.102                             : en:Always There
00:47:37.646                             : en:Rider's Work
00:56:00.607                             : en:Bounty Hunter
01:05:50.029                             : en:Sparking Flames
01:12:49.198                             : en:Caged Fire
01:18:28.286                             : en:In Pursuit
01:25:15.235                             : en:Rider Tales
01:37:06.111                             : en:Last Ride
01:45:45.839                             : en:Ready for Battle
01:49:38.780                             : en:A Deal's a Deal
Світлини




Джерело: &
Особиста оцінка: 0 - не дивився


 Трекер:    Зареєстрований   

Завантажити / скачати фільм українською



відео для новачків



 Зареєстрований:   2019-09-22 12:01
 Розмір:   5.95 GB 
 Оцінка фільму:   9.8/10 (Голосів: 6)
   
toloka_alex_2013 
Новенький


З нами з: 06.12.13
Востаннє: 13.08.20
Повідомлень: 13

2019-10-12 21:38  
Місцями відсутній переклад.
igor911 
Модератор відео


З нами з: 18.01.08
Востаннє: 13.08.20
Повідомлень: 14941

2019-10-12 21:57  
toloka_alex_2013, додав попередження в опис, релізер чомусь не звертає уваги на такі "дрібниці".
Ваш часовий пояс: GMT + 2 Години

Нова тема   Відповісти