Готика / Gothika (2003) 1080p H.265 2xUkr/Eng | Sub Eng

Нові коментарі

Нова тема   Відповісти
Автор Повідомлення
Anonymous 







2019-09-22 11:52  
Готика / Gothika (2003) 1080p H.265 2xUkr/Eng | Sub Eng

Готика / Gothika (2003) 1080p H.265 2xUkr/Eng | Sub Eng


Жанр: містика, трилер, детектив
Країна: США
Кінокомпанія: Columbia Pictures Corporation
Режисер: Матьє Кассовіц (Mathieu Kassovitz)
Актори: Голлі Беррі (Halle Berry), Пенелопа Крус (Penélope Cruz), Роберт Дауні-мол. (Robert Downey Jr.), Чарльз Даттон (Charles S. Dutton) та інші.

Сюжет:
Фільм розповідає про жінку-психіатра, яка одного дня стає пацієнткою лікарні для неосудних злочинців, де вона раніше працювала.

До того ж, її звинувачують у скоєнні жорстокого вбивства, якого вона зовсім не пам'ятає. Намагаючись зрозуміти, що відбувається, вона стає свідком незбагненних містичних подій...

Тривалість: 01:38:07
Якість:

Відео:
кодек: H.265 (HEVC)
розмір кадру: 1912 x 1040
бітрейт: 9 413 кб/с
бітова глибина: 10 біт

Увага! Перед завантаженням переконайтесь, що ваш пристрій відтворення (та/або ПЗ) підтримує H.265 (HEVC)

Аудіо # 1:
мова: українська
переклад: двоголосий закадровий
кодек: AC-3 2.0
бітрейт: 256 кб/с

Аудіо # 2:
мова: українська
переклад: багатоголосий закадровий
кодек: AC-3 2.0
бітрейт: 192 кб/с

Аудіо # 3:
мова: англійська
переклад: оригінал
кодек: AC-3 5.1
бітрейт: 640 кб/с

Субтитри # 1: (Full)
мова: англійська
тип: програмні (м'які)
формат: *.srt


Info
Код:
General
Unique ID                                : 325231561249295653809759196512257468084 (0xF4AD51FD0459EAE7D1ED2967E3F666B4)
Complete name                            : Gothika (2003) 1080p H.265 [2xUKR_ENG] [Hurtom].
Format                                   :
Format version                           : Version 4
File size                                : 7.20 GiB
Duration                                 : 1 h 38 min
Overall bit rate                         : 10.5 Mb/s
Movie name                               : Готика / Gothika (2003)
Encoded date                             : UTC 2020-01-11 15:26:16
Writing application                      : v20.0.0 ('I Am The Sun') 64-bit
Writing library                          : libebml v1.3.5 + v1.4.8
Cover                                    : Yes
Attachments                              : Cover.jpg

Video
ID                                       : 1
Format                                   : HEVC
Format/Info                              : High Efficiency Video Coding
Format profile                           : Main [email protected]@High
Codec ID                                 : V_MPEGH/ISO/HEVC
Duration                                 : 1 h 38 min
Bit rate                                 : 9 412 kb/s
Width                                    : 1 912 pixels
Height                                   : 1 040 pixels
Display aspect ratio                     : 1.85:1
Frame rate mode                          : Constant
Frame rate                               : 23.976 (24000/1001) FPS
Color space                              : YUV
Chroma subsampling                       : 4:2:0
Bit depth                                : 10 bits
Bits/(Pixel*Frame)                       : 0.197
Stream size                              : 6.45 GiB (90%)
Title                                    : Готика / Gothika (2003)
Writing library                          : x265 2.9+9-f74003e88622:[Windows][GCC 8.2.0][64 bit] 10bit
Encoding settings                        : cpuid=1111039 / frame-threads=16 / numa-pools=16 / wpp / no-pmode / no-pme / no-psnr / no-ssim / log-level=3 / input-csp=1 / input-res=1912x1040 / interlace=0 / total-frames=0 / level-idc=41 / high-tier=1 / uhd-bd=0 / ref=5 / allow-non-conformance / no-repeat-headers / annexb / no-aud / no-hrd / info / hash=0 / no-temporal-layers / open-gop / min-keyint=24 / keyint=240 / gop-lookahead=0 / bframes=13 / b-adapt=2 / b-pyramid / bframe-bias=0 / rc-lookahead=80 / lookahead-slices=6 / scenecut=40 / radl=0 / no-intra-refresh / ctu=64 / min-cu-size=8 / rect / amp / max-tu-size=32 / tu-inter-depth=4 / tu-intra-depth=4 / limit-tu=1 / rdoq-level=2 / dynamic-rd=0.00 / no-ssim-rd / signhide / no-tskip / nr-intra=0 / nr-inter=0 / no-constrained-intra / no-strong-intra-smoothing / max-merge=5 / limit-refs=3 / no-limit-modes / me=3 / subme=7 / merange=57 / temporal-mvp / weightp / weightb / no-analyze-src-pics / deblock=-3:-3 / no-sao / no-sao-non-deblock / rd=6 / no-early-skip / rskip / no-fast-intra / no-tskip-fast / no-cu-lossless / no-b-intra / no-splitrd-skip / rdpenalty=0 / psy-rd=2.00 / psy-rdoq=1.00 / no-rd-refine / no-lossless / cbqpoffs=0 / crqpoffs=0 / rc=crf / crf=20.1 / qcomp=0.65 / qpstep=4 / stats-write=0 / stats-read=0 / vbv-maxrate=50000 / vbv-bufsize=50000 / vbv-init=0.9 / crf-max=0.0 / crf-min=0.0 / ipratio=1.40 / pbratio=1.30 / aq-mode=2 / aq-strength=0.90 / no-cutree / zone-count=1 / zones: / start-frame=136310 / end-frame=141163 / qp=36 / no-strict-cbr / qg-size=32 / no-rc-grain / qpmax=69 / qpmin=0 / no-const-vbv / sar=1 / overscan=0 / videoformat=5 / range=0 / colorprim=2 / transfer=2 / colormatrix=2 / chromaloc=0 / display-window=0 / max-cll=0,0 / min-luma=0 / max-luma=1023 / log2-max-poc-lsb=8 / vui-timing-info / vui-hrd-info / slices=1 / no-opt-qp-pps / no-opt-ref-list-length-pps / no-multi-pass-opt-rps / scenecut-bias=0.00 / no-opt-cu-delta-qp / aq-motion / no-hdr / no-hdr-opt / no-dhdr10-opt / no-idr-recovery-sei / analysis-reuse-level=5 / scale-factor=0 / refine-intra=0 / refine-inter=0 / refine-mv=0 / no-limit-sao / ctu-info=0 / no-lowpass-dct / refine-mv-type=0 / copy-pic=1 / max-ausize-factor=1.0 / no-dynamic-refine / no-single-sei
Language                                 : English
Default                                  : Yes
Forced                                   : No
Color range                              : Limited

Audio #1
ID                                       : 2
Format                                   : AC-3
Format/Info                              : Audio Coding 3
Commercial name                          : Dolby Digital
Codec ID                                 : A_AC3
Duration                                 : 1 h 38 min
Bit rate mode                            : Constant
Bit rate                                 : 256 kb/s
Channel(s)                               : 2 channels
Channel layout                           : L R
Sampling rate                            : 48.0 kHz
Frame rate                               : 31.250 FPS (1536 SPF)
Bit depth                                : 16 bits
Compression mode                         : Lossy
Stream size                              : 180 MiB (2%)
Title                                    : / 2.0 Ch / 256 kbps / ДЗ / 1+1
Language                                 : Ukrainian
Service kind                             : Complete Main
Default                                  : Yes
Forced                                   : Yes

Audio #2
ID                                       : 3
Format                                   : AC-3
Format/Info                              : Audio Coding 3
Commercial name                          : Dolby Digital
Codec ID                                 : A_AC3
Duration                                 : 1 h 38 min
Bit rate mode                            : Constant
Bit rate                                 : 192 kb/s
Channel(s)                               : 2 channels
Channel layout                           : L R
Sampling rate                            : 48.0 kHz
Frame rate                               : 31.250 FPS (1536 SPF)
Bit depth                                : 16 bits
Compression mode                         : Lossy
Stream size                              : 135 MiB (2%)
Title                                    : / 2.0 Ch / 192 kbps / БЗ / Так треба продакшн на замовлення Inter
Language                                 : Ukrainian
Service kind                             : Complete Main
Default                                  : No
Forced                                   : No

Audio #3
ID                                       : 4
Format                                   : AC-3
Format/Info                              : Audio Coding 3
Commercial name                          : Dolby Digital
Codec ID                                 : A_AC3
Duration                                 : 1 h 38 min
Bit rate mode                            : Constant
Bit rate                                 : 640 kb/s
Channel(s)                               : 6 channels
Channel layout                           : L R C LFE Ls Rs
Sampling rate                            : 48.0 kHz
Frame rate                               : 31.250 FPS (1536 SPF)
Bit depth                                : 16 bits
Compression mode                         : Lossy
Stream size                              : 449 MiB (6%)
Title                                    : / 5.1 Ch / 640 kbps / Original
Language                                 : English
Service kind                             : Complete Main
Default                                  : No
Forced                                   : No

Text
ID                                       : 5
Format                                   : UTF-8
Codec ID                                 : S_TEXT/UTF8
Codec ID/Info                            : UTF-8 Plain Text
Duration                                 : 1 h 32 min
Bit rate                                 : 40 b/s
Count of elements                        : 789
Stream size                              : 27.4 KiB (0%)
Title                                    : Full
Language                                 : English
Default                                  : No
Forced                                   : No

Menu
00:00:00.000                             : en:Not Listening
00:05:08.683                             : en:Distorted Image
00:09:22.061                             : en:After Hours
00:13:23.594                             : en:Girl in the Road
00:16:00.793                             : en:Locked Up
00:19:18.323                             : en:Remembering
00:22:53.914                             : en:Invisible Now
00:25:10.300                             : en:Not Alone
00:28:22.575                             : en:Shower Shock
00:30:51.224                             : en:Why Didn't We?
00:34:42.538                             : en:Overwhelming Evidence
00:40:54.201                             : en:Girl in the Picture
00:45:14.211                             : en:Corridor Visions
00:50:34.114                             : en:There -- Dead or Alive
00:53:22.532                             : en:You're Next
00:55:59.939                             : en:Visitation
00:58:00.810                             : en:Breathless Escape
01:02:50.057                             : en:Accelerated Getaway
01:05:39.352                             : en:Murder Seen
01:10:33.812                             : en:Willow Creek
01:13:51.969                             : en:Secrets Below
01:17:58.799                             : en:Possessed
01:22:31.404                             : en:Killer's Profile
01:26:53.249                             : en:Flameout
01:31:44.624                             : en:Intersection
01:34:01.135                             : en:End Credits
Світлини




Джерело: &
Особиста оцінка: 0 - не дивився


Срібний реліз (на рейтинг впливає 50% завантаженого)
 Трекер:    Зареєстрований   

Завантажити / скачати фільм українською



відео для новачків



 Зареєстрований:   2020-01-11 18:38
 Розмір:   7.2 GB 
 Оцінка фільму:   8.8/10 (Голосів: 5)
   
Інші релізи
   Готика / Gothika (2003) AVC 2xUkr/Eng | Sub Eng staf777  4 / 0   2.74 GB   2018-05-31 17:32 
   Готика / Gothika (2003) Remux 1080p 2xUkr/Eng | Sub Eng staf777  3 / 0   21.7 GB   2017-01-28 22:59 
   Готика / Gothika (2003) 720р 2xUkr/Eng | Sub Eng 11FrYkT  0 / 0   5.43 GB   2012-08-06 23:12 
   Готика / Gothika (2003) 2хUkr/Eng robotron005  6 / 0   1.73 GB   2012-01-03 20:26 
Anonymous 







2020-01-11 18:38  
Якісніший відеоряд.
Ваш часовий пояс: GMT + 2 Години

Нова тема   Відповісти