Людина-Павук: Далеко від дому / Spider-Man: Far From Home (2019) UHD Remux 4K 2160p HDR H.265 Ukr/Eng | Sub Ukr/Eng

Нові коментарі

Нова тема   Відповісти
Автор Повідомлення
Anonymous 







2019-09-20 21:59  
Людина-Павук: Далеко від дому / Spider-Man: Far From Home (2019) UHD Remux 4K 2160p HDR H.265 Ukr/Eng | Sub Ukr/Eng

Людина-Павук: Далеко від дому / Spider-Man: Far From Home (2019) UHD Remux 4K 2160p HDR H.265 Ukr/Eng | Sub Ukr/Eng


Жанр: бойовик, пригодницький, фантастика
Країна: США



Кінокомпанія: Sony Pictures, Columbia Pictures, Marvel Studios
Режисер: Джон Воттс
Актори: Том Холланд (II), Зенден Колеман, Семюел Л. Джексон, Джейк Джилленхол, Джон Фавро, Джейкоб Баталон, Кобі Смолдерс, Маріса Томей, Мартін Старр, Нуман Аджар, Енгаурі Райс, Тоні Револорі, Дж.К. Сіммонс, Ремі Хай, Дж.Б. Смув, Хорхе Лендеборг мл.

Сюжет:
"Доброзичливий сусід" Людина-Павук, як і належить, став героєм Нью-Йорка. Він допомагає місцевій поліції ловити злочинців, паралельно кидаючи різні колючі жарті. Але й героям потрібно відпочивати – тому, незважаючи на дзвінки самого директора "Щ.И.Т.а" Ніка Ф'юрі, Пітер Паркер разом зі своїми друзями Недом, Ем Джей й іншими відправився на канікули до Європи. Старовинні красиві міста, умиротворення та романтична обстановка, щоб прогулятися набережною із красивою дівчиною – ось що йому зараз потрібно. Але Нік Ф'юрі його все-таки знайшов і напряг роботою... Відмовляти йому – тільки собі дорожче. Людина-Павук повинен розібратися з містичною появою створінь-елементаліїв, які загрожують мирним жителям. Разом із Містеріо Пітер Паркер повинен впоратися з цим завданням. Відпочине коли-небудь іншим разом...


Тривалість: 02:09:24
Якість: UHD Remux 4K 2160p

Відео:
кодек: H.265 (HEVC)
розмір кадру: 3840x2160
бітрейт: 53.7 Мб/с
бітова глибина: 10 біт
кольоровий простір: BT.2020 (HDR)

Аудіо # 1:
мова: українська
переклад: професійний дубльований
кодек: 5.1
бітрейт: 384 кб/с

Аудіо # 2:
мова: англійська
переклад: оригінал
кодек: 5.1
бітрейт: 640 кб/с

Аудіо # 3:
мова: англійська
переклад: оригінал
кодек: TrueHD + Atmos 7.1
бітрейт: 3077 кб/с

Субтитри: (Full)
мова: українська
тип: програмні (м'які)
формат: *.srt

Субтитри: (Full, SDH)
мова: англійська
тип: програмні (м'які)
формат: *.srt
Info
Код:
General
Complete name                            : Spider-Man Far From Home (2019) UHD Remux 4K 2160p HDR H.265 (HEVC) [UKR_ENG] [ViDeO_Hurtom].
Format                                   :
Format version                           : Version 4
File size                                : 52.3 GiB
Duration                                 : 2 h 9 min
Overall bit rate mode                    : Variable
Overall bit rate                         : 57.8 Mb/s
Movie name                               : Spider-Man Far From Home (2019) UHD Remux 4K 2160p HDR H.265 (HEVC) [UKR_ENG] [ViDeO_Hurtom]
Encoded date                             : UTC 2019-09-27 23:06:07
Writing application                      : v30.1.0 ('Forever And More') 64-bit
Writing library                          : libebml v1.3.6 + v1.4.9
Cover                                    : Yes
Attachments                              : cover.jpg

Video
ID                                       : 1
Format                                   : HEVC
Format/Info                              : High Efficiency Video Coding
Commercial name                          : HDR10
Format profile                           : Main [email protected]@High
Codec ID                                 : V_MPEGH/ISO/HEVC
Duration                                 : 2 h 9 min
Bit rate                                 : 53.7 Mb/s
Width                                    : 3 840 pixels
Height                                   : 2 160 pixels
Display aspect ratio                     : 16:9
Frame rate mode                          : Constant
Frame rate                               : 23.976 (24000/1001) FPS
Color space                              : YUV
Chroma subsampling                       : 4:2:0 (Type 2)
Bit depth                                : 10 bits
Bits/(Pixel*Frame)                       : 0.270
Stream size                              : 48.5 GiB (93%)
Language                                 : English
Default                                  : Yes
Forced                                   : No
Color range                              : Limited
Color primaries                          : BT.2020
Transfer characteristics                 : PQ
Matrix coefficients                      : BT.2020 non-constant
Mastering display color primaries        : Display P3
Mastering display luminance              : min: 0.0001 cd/m2, max: 1000 cd/m2
Maximum Content Light Level              : 9978 cd/m2
Maximum Frame-Average Light Level        : 614 cd/m2

Audio #1
ID                                       : 2
Format                                   : AC-3
Format/Info                              : Audio Coding 3
Commercial name                          : Dolby Digital
Codec ID                                 : A_AC3
Duration                                 : 2 h 9 min
Bit rate mode                            : Constant
Bit rate                                 : 384 kb/s
Channel(s)                               : 6 channels
Channel layout                           : L R C LFE Ls Rs
Sampling rate                            : 48.0 kHz
Frame rate                               : 31.250 FPS (1536 SPF)
Bit depth                                : 16 bits
Compression mode                         : Lossy
Delay relative to video                  : 1 s 0 ms
Stream size                              : 355 MiB (1%)
Title                                    : , 6 ch, 384 Кбт/с
Language                                 : Ukrainian
Service kind                             : Complete Main
Default                                  : Yes
Forced                                   : No

Audio #2
ID                                       : 3
Format                                   : AC-3
Format/Info                              : Audio Coding 3
Commercial name                          : Dolby Digital
Codec ID                                 : A_AC3
Duration                                 : 2 h 9 min
Bit rate mode                            : Constant
Bit rate                                 : 640 kb/s
Channel(s)                               : 6 channels
Channel layout                           : L R C LFE Ls Rs
Sampling rate                            : 48.0 kHz
Frame rate                               : 31.250 FPS (1536 SPF)
Bit depth                                : 16 bits
Compression mode                         : Lossy
Stream size                              : 592 MiB (1%)
Title                                    : , 6 ch, 640 Кбт/с
Language                                 : English
Service kind                             : Complete Main
Default                                  : No
Forced                                   : No

Audio #3
ID                                       : 4
Format                                   : MLP FBA 16-ch
Format/Info                              : Meridian Lossless Packing FBA with 16-channel presentation
Commercial name                          : Dolby TrueHD with Dolby Atmos
Codec ID                                 : A_TRUEHD
Duration                                 : 2 h 9 min
Bit rate mode                            : Variable
Bit rate                                 : 3 077 kb/s
Maximum bit rate                         : 5 397 kb/s
Channel(s)                               : 8 channels
Channel layout                           : L R C LFE Ls Rs Lb Rb
Sampling rate                            : 48.0 kHz
Frame rate                               : 1 200.000 FPS (40 SPF)
Compression mode                         : Lossless
Stream size                              : 2.78 GiB (5%)
Title                                    : TrueHD, 8 ch, 3077 Кбт/с
Language                                 : English
Default                                  : No
Forced                                   : No
Number of dynamic objects                : 11
Bed channel count                        : 1 channel
Bed channel configuration                : LFE

Text #1
ID                                       : 5
Format                                   : UTF-8
Codec ID                                 : S_TEXT/UTF8
Codec ID/Info                            : UTF-8 Plain Text
Duration                                 : 2 h 8 min
Bit rate                                 : 94 b/s
Count of elements                        : 1759
Stream size                              : 89.3 KiB (0%)
Title                                    : Full
Language                                 : Ukrainian
Default                                  : Yes
Forced                                   : No

Text #2
ID                                       : 6
Format                                   : UTF-8
Codec ID                                 : S_TEXT/UTF8
Codec ID/Info                            : UTF-8 Plain Text
Duration                                 : 2 h 7 min
Bit rate                                 : 62 b/s
Count of elements                        : 1749
Stream size                              : 58.2 KiB (0%)
Title                                    : Full
Language                                 : English
Default                                  : No
Forced                                   : No

Text #3
ID                                       : 7
Format                                   : UTF-8
Codec ID                                 : S_TEXT/UTF8
Codec ID/Info                            : UTF-8 Plain Text
Duration                                 : 2 h 8 min
Bit rate                                 : 68 b/s
Count of elements                        : 1929
Stream size                              : 64.0 KiB (0%)
Title                                    : SDH
Language                                 : English
Default                                  : No
Forced                                   : No

Menu
00:00:00.000                             : en:Chapter 01
00:09:35.033                             : en:Chapter 02
00:16:06.716                             : en:Chapter 03
00:25:18.475                             : en:Chapter 04
00:35:26.499                             : en:Chapter 05
00:41:57.014                             : en:Chapter 06
00:49:50.029                             : en:Chapter 07
00:57:09.509                             : en:Chapter 08
01:04:50.637                             : en:Chapter 09
01:15:57.219                             : en:Chapter 10
01:22:49.089                             : en:Chapter 11
01:29:25.193                             : en:Chapter 12
01:36:43.256                             : en:Chapter 13
01:44:47.364                             : en:Chapter 14
01:52:17.397                             : en:Chapter 15
01:57:45.433                             : en:Chapter 16
Скріншоти


Джерело: &
За аудіо аудіо 5.1 | 384 Kbps | Itunes | Ukr подяка трекеру :
Особиста оцінка: 8 - мені сподобалося

Увага! Перед завантаженням переконайтесь, що ваш пристрій відтворення (та/або ПЗ) підтримує H.265 (HEVC)


Золотий реліз (завантажене не впливає на рейтинг)
 Трекер:    Зареєстрований   

Завантажити / скачати фільм українською



відео для новачків



 Зареєстрований:   2019-09-28 02:56
 Розмір:   52.27 GB 
 Оцінка фільму:   9/10 (Голосів: 26)
   
bot 
робот


З нами з: 30.09.07
Востаннє: 26.05.05
Повідомлень: 22333

2019-09-20 23:43  
Тему перенесено з Анонси релізів до форуму Фільми в HD


antik_2008

ngxwinger 
Свій


З нами з: 19.01.14
Востаннє: 22.10.19
Повідомлень: 53

2019-09-22 00:49  
Це звісно значно більше комедія аніж перша частина, гумору дуже багато, для підняття настрою саме те, що треба.
Neolo 
Свій


З нами з: 13.11.10
Востаннє: 21.10.19
Повідомлень: 96

2019-09-22 11:20  

Створена роздача на DC++ хабі Толока (сід "Схованка-1" 24/7)

-> Магніт: magnet:?xt=urn:tree:tiger:6FIVPYN2KHVBW7K3X5UVP2SFCEKET2FX5OLPM7Y&xl=55933263911&dn=Spider-Man+Far+From+Home+(2019)+UHD+Remux+4K+2160p+HDR+H.265+(HEVC)+%5BUKR_ENG%5D+%5BViDeO_Hurtom%5D.
-> Або CTRL+S в клієнті і виконати пошук за хешом: 6FIVPYN2KHVBW7K3X5UVP2SFCEKET2FX5OLPM7Y

Тема на форумі та як приєднатися: https://toloka.to/t103590

YurOK_88 
Новенький


З нами з: 26.09.18
Востаннє: 21.10.19
Повідомлень: 10

2019-09-23 14:39  
Класний фільм та багата жартів)) Рекомендую до перегляду!)
Anonymous 







2019-09-28 03:00  
Торент файл оновлено. Додав укр. субтитри (Full) , а також аудіо 5.1 | 384 (iTunes)

tflash 
Новенький


З нами з: 27.01.10
Востаннє: 20.10.19
Повідомлень: 1

2019-10-11 11:40  
Чи планується в FullHD H265?
Ваш часовий пояс: GMT + 2 Години

Нова тема   Відповісти